10 кроків до успіху / 10 Items or Less (2006) HDTV 1080i Ukr/Eng | Sub Eng

Нові коментарі

Нова тема   Відповісти
Автор Повідомлення
Anonymous 







2018-07-15 12:09  
10 кроків до успіху / 10 Items or Less (2006) HDTV 1080i Ukr/Eng | Sub Eng

10 кроків до успіху / 10 Items or Less (2006) HDTV 1080i Ukr/Eng | Sub Eng


Жанр: комедія, драма, романтика
Країна: США



Кінокомпанія: Reveal Entertainment
Режисер: Бред Сілберлінґ
Актори: Морґан Фріман, Паз Веґа, Джона Гілл, Енн Дудек

Сюжет:
Старіюча зірка Голлівуду усвідомлює, що, піддавшись страху провалу, він просто забув про свій творчий потенціал, раз за разом відмовляючись від перспективних пропозицій. Сподіваючись змінити стан справ, він вирішує переглянути для себе цікаву роль в якому-небудь малобюджетном незалежному фільмі. Випадково він зустрічає юну задерикувату латиноамериканку Скарлет, що працює касиркою в латиноамериканському супермаркеті.
Незабаром знаменитість виявляє, що він залишився без персонального водія, який зазвичай супроводжував його в поїздках по місту, і виявляється змушений звернутися за допомогою до дівчини. Подорож по Лос-Анджелесу в компанії Скарлет перетворюється в низку неймовірних ситуацій, випадкових зустрічей і особистих відкриттів, про які ніхто з діючих осіб навіть і уявити не міг ...


Тривалість: 01:17:19
Якість: HDTV 1080i
Відео:
кодек:
розмір кадру: 1920 x 1080
бітрейт: 8030 кб/с

Аудіо # 1:
мова: українська
переклад: двоголосий закадровий
кодек: 2.0
бітрейт: 192 кб/с
примітка: Озвучено невідомою студією. Усі чоловічі ролі озвучив Олександр Завальський. Звук витягнуто з цифрового студійного Betacam.

Аудіо # 2:
мова: англійська
переклад: оригінал
кодек: 5.1
бітрейт: 448 кб/с

Субтитри:
мова: англійська
тип: пререндерні
формат: PGS
Info
General
ID : 1 (0x1)
Format : BDAV
Format/Info : Blu-ray Video
File size : 4.88 GiB
Duration : 1 h 17 min
Overall bit rate mode : Variable
Overall bit rate : 9 041 kb/s
Maximum Overall bit rate : 35.5 Mb/s

Video
ID : 4113 (0x1011)
Menu ID : 1 (0x1)
Format : AVC
Format/Info : Advanced Video Codec
Format profile : [email protected]
Format settings : CABAC / 4 Ref Frames
Format settings, CABAC : Yes
Format settings, ReFrames : 4 frames
Codec ID : 27
Duration : 1 h 15 min
Bit rate mode : Variable
Bit rate : 8 030 kb/s
Maximum bit rate : 40.0 Mb/s
Width : 1 920 pixels
Height : 1 080 pixels
Display aspect ratio : 16:9
Frame rate : 25.000 FPS
Color space : YUV
Chroma subsampling : 4:2:0
Bit depth : 8 bits
Scan type : Interlaced
Scan type, store method : Separated fields
Scan order : Bottom Field First
Bits/(Pixel*Frame) : 0.155
Stream size : 4.26 GiB (87%)
Color range : Limited
Color primaries : BT.709
Transfer characteristics : BT.709
Matrix coefficients : BT.709

Audio #1
ID : 4352 (0x1100)
Menu ID : 1 (0x1)
Format : AC-3
Format/Info : Audio Coding 3
Codec ID : 129
Duration : 1 h 17 min
Bit rate mode : Constant
Bit rate : 192 kb/s
Channel(s) : 2 channels
Channel positions : Front: L R
Sampling rate : 48.0 kHz
Frame rate : 31.250 FPS (1536 SPF)
Bit depth : 16 bits
Compression mode : Lossy
Stream size : 106 MiB (2%)
Language : Ukrainian
Service kind : Complete Main

Audio #2
ID : 4353 (0x1101)
Menu ID : 1 (0x1)
Format : AC-3
Format/Info : Audio Coding 3
Codec ID : 129
Duration : 1 h 17 min
Bit rate mode : Constant
Bit rate : 448 kb/s
Channel(s) : 6 channels
Channel positions : Front: L C R, Side: L R, LFE
Sampling rate : 48.0 kHz
Frame rate : 31.250 FPS (1536 SPF)
Bit depth : 16 bits
Compression mode : Lossy
Delay relative to video : 1 s 880 ms
Stream size : 248 MiB (5%)
Language : English
Service kind : Complete Main

Text
ID : 4608 (0x1200)
Menu ID : 1 (0x1)
Format : PGS
Codec ID : 144
Delay relative to video : 19 s 320 ms
Language : English
Скріншоти


За українську доріжку подяка п. robotron005
Особиста подяка пану denixx за надану матеріальну допомогу на підтримку цього і майбутніх релізів.
Джерело:


 Трекер:    Зареєстрований   

Завантажити / скачати фільм українською



відео для новачків



 Зареєстрований:   2018-07-15 12:09
 Розмір:   4.88 GB 
 Оцінка фільму:   8.4/10 (Голосів: 11)
   
Інші релізи
   10 кроків до успіху / 10 Items or Less (2006) AVC leicheman  4 / 0   1.43 GB   2018-06-22 21:11 
   10 кроків до успіху / 10 Items or Less (2006) Ukr/Eng robotron005  3 / 0   1.34 GB   2012-03-02 20:40 
ukrnet 
Свій


З нами з: 03.01.14
Востаннє: 27.09.20
Повідомлень: 97

2020-06-12 14:20  
народ станьте на роздачу!!!!!!!!!!!!!!!!!!!!!!!
Ваш часовий пояс: GMT + 2 Години

Нова тема   Відповісти