Спільнота (Сезони 4-6) / Community (Seasons 4-6) (2013-2015) 720p Ukr/Eng

Нові коментарі

Нова тема   Відповісти
Автор Повідомлення
Anonymous 







2018-07-15 10:40  


Спільнота (Сезони 4-6) / Community (Seasons 4-6) (2013-2015) 720p Ukr/Eng

Спільнота (Сезони 4-6) / Community (Seasons 4-6) (2013-2015) 720p Ukr/Eng


Жанр: комедія
Країна: США



Кінокомпанія: NBC
Режисер: Трістрам Шапіро (Tristram Shapeero), Джо Руссо (Joe Russo)
Актори: Джоел МакГейл (Joel McHale), Ґілліан Джейкобс (Gillian Jacobs), Денні Пуді (Danny Pudi), Іветт Ніколь Браун (Yvette Nicole Brown), Елісон Брі (Alison Brie), Дональд Ґловер (Donald Glover) та інші.

Сюжет:
Американський телесеріал, створений Деном Гармоном, розповідає про студентів муніципального коледжу «Ґріндейл» в штаті Колорадо.


Тривалість: 1 серія: ~20 хв. (цілком серій: 39)
Перелік серій
Сезон 4
01. History 101
02. Paranormal Parentage
03. Conventions of Space and Time
04. Alternative History of the German Invasion
05. Cooperative Escapism in Familial Relations
06. Advanced Documentary Filmmaking
07. Economics of Marine Biology
08. Herstory of Dance
09. Intro to Felt Surrogacy
10. Intro to Knots
11. Basic Human Anatomy
12. Heroic Origins
13. Advanced Introduction to Finality
Сезон 5
01. Repilot
02. Introduction to Teaching
03. Basic Intergluteal Numismatics
04. Cooperative Polygraphy
05. Geothermal Escapism
06. Analysis of Cork-Based Networking
07. Bondage and Beta Male Sexuality
08. App Development and Condiments
09. VCR Maintenance and Educational Publishing
10. Advanced Advanced Dungeons & Dragons
11. G.I. Jeff
12. Basic Story
13. Basic Sandwich
Сезон 6
01. Ladders
02. Lawnmower Maintenance & Postnatal Care
03. Basic Crisis Room Decorum
04. Queer Studies & Advanced Waxing
05. Laws of Robotics & Party Rights
06. Basic Email Security
07. Advanced Safety Features
08. Intro to Recycled Cinema
09. Grifting 101
10. Basic RV Repair and Palmistry
11. Modern Espionage
12. Wedding Videography
13. Emotional Consequences of Broadcast Television
Якість:
Відео:
кодек:
розмір кадру: 1280 х 720
бітрейт: ~4000 кб/с

Аудіо # 1:
мова: українська
переклад: багатоголосий закадровий | Paramount Comedy
кодек: 2.0
бітрейт: 192 кб/с

Аудіо # 2:
мова: англійська
переклад: оригінал
кодек: 5.1
бітрейт: 384 кб/с
Info
General
Unique ID : 8989478375396563615827408351097388663 (0x6C34F80C764B9BE36DA61951275FE77)
Complete name : E:\Support\Community (Seasons 4-6) [, 720p, Ukr, Eng]\Season 4\Community.S04E01.History.101.720p..Paramount.Comedy.
Format :
Format version : Version 4 / Version 2
File size : 699 MiB
Duration : 20 min 34 s
Overall bit rate : 4 750 kb/s
Encoded date : UTC 2018-07-15 07:54:19
Writing application : v24.0.0 ('Beyond The Pale') 64-bit
Writing library : libebml v1.3.6 + v1.4.9

Video
ID : 1
Format : AVC
Format/Info : Advanced Video Codec
Format profile : [email protected]
Format settings : CABAC / 5 Ref Frames
Format settings, CABAC : Yes
Format settings, ReFrames : 5 frames
Codec ID : V_MPEG4/ISO/AVC
Duration : 20 min 34 s
Bit rate : 3 999 kb/s
Width : 1 280 pixels
Height : 720 pixels
Display aspect ratio : 16:9
Frame rate mode : Constant
Frame rate : 25.000 FPS
Original frame rate : 23.976 (24000/1001) FPS
Color space : YUV
Chroma subsampling : 4:2:0
Bit depth : 8 bits
Scan type : Progressive
Bits/(Pixel*Frame) : 0.174
Stream size : 614 MiB (88%)
Writing library : core 129 r2245 bc13772
Encoding settings : cabac=1 / ref=5 / deblock=1:0:0 / analyse=0x3:0x133 / me=umh / subme=10 / psy=1 / psy_rd=1.00:0.15 / mixed_ref=1 / me_range=32 / chroma_me=1 / trellis=2 / 8x8dct=1 / cqm=0 / deadzone=21,11 / fast_pskip=0 / chroma_qp_offset=-3 / threads=12 / lookahead_threads=2 / sliced_threads=0 / nr=0 / decimate=0 / interlaced=0 / bluray_compat=0 / constrained_intra=0 / bframes=4 / b_pyramid=2 / b_adapt=2 / b_bias=0 / direct=3 / weightb=1 / open_gop=0 / weightp=2 / keyint=240 / keyint_min=23 / scenecut=40 / intra_refresh=0 / rc_lookahead=40 / rc=2pass / mbtree=1 / bitrate=3999 / ratetol=1.0 / qcomp=0.60 / qpmin=0 / qpmax=69 / qpstep=4 / cplxblur=20.0 / qblur=0.5 / ip_ratio=1.40 / aq=1:1.00
Language : English
Default : Yes
Forced : No

Audio #1
ID : 2
Format : AC-3
Format/Info : Audio Coding 3
Codec ID : A_AC3
Duration : 20 min 34 s
Bit rate mode : Constant
Bit rate : 192 kb/s
Channel(s) : 2 channels
Channel positions : Front: L R
Sampling rate : 48.0 kHz
Frame rate : 31.250 FPS (1536 SPF)
Bit depth : 16 bits
Compression mode : Lossy
Stream size : 28.3 MiB (4%)
Title : Paramount Comedy
Language : Ukrainian
Service kind : Complete Main
Default : Yes
Forced : No

Audio #2
ID : 3
Format : AC-3
Format/Info : Audio Coding 3
Codec ID : A_AC3
Duration : 20 min 34 s
Bit rate mode : Constant
Bit rate : 384 kb/s
Channel(s) : 6 channels
Channel positions : Front: L C R, Side: L R, LFE
Sampling rate : 48.0 kHz
Frame rate : 31.250 FPS (1536 SPF)
Bit depth : 16 bits
Compression mode : Lossy
Stream size : 56.5 MiB (8%)
Language : English
Service kind : Complete Main
Default : No
Forced : No
Скріншоти

Над релізом працювали: Anonymous..., -_-B_Е_N_D_Е_R-_-, Sando7, slavik_v_z, mishka1998

Джерело:
Особиста оцінка: 0 - не варте уваги


Бронзовий реліз (на рейтинг впливає 75% завантаженого)
 Трекер:    Зареєстрований   

Завантажити / скачати серіал українською



відео для новачків



 Зареєстрований:   2018-07-15 10:40
 Розмір:   29.38 GB 
 Оцінка серіалу:   9.8/10 (Голосів: 16)
   
-_-В_E_N_D_Е_R-_- 
Забанено
Забанено


З нами з: 11.07.18
Востаннє: 23.08.18
Повідомлень: 528

2018-07-15 12:13  
Anonymous написано:
0 - не варте уваги

Варте!

tetna 
VIP


З нами з: 21.11.14
Востаннє: 03.12.20
Повідомлень: 581

2018-07-29 12:13  
а де озвучка українська на 0409???
Anonymous 







2018-07-29 12:24  
tetna написано:
а де озвучка українська на 0409???

На місці.

tetna 
VIP


З нами з: 21.11.14
Востаннє: 03.12.20
Повідомлень: 581

2018-07-29 12:27  
ні. української немає.
-_-В_E_N_D_Е_R-_- 
Забанено
Забанено


З нами з: 11.07.18
Востаннє: 23.08.18
Повідомлень: 528

2018-07-29 12:30  
tetna
https://drive.google.com/drive/folders/1NPliNW0haoXTNJozhMPtRELz-ZxhToCC?usp=sharing

Додано через 1 хвилину 6 секунд:

Здається там були вшиті рос саби

Anonymous 







2018-07-29 12:33  
У дев'ятій серії четвертого сезону (як і у всіх решти) є дві доріжки: українська (перша) і англійська (друга). Якщо у вас щось не так - то або у вас щось не так з плеєром, або ви цю серію взяли не тут.

Додано через 1 хвилину 12 секунд:

-_-В_E_N_D_Е_R-_- написано:
Здається там були вшиті рос саби

Немає там ніяких рос. сабів.

tetna 
VIP


З нами з: 21.11.14
Востаннє: 03.12.20
Повідомлень: 581

2018-07-29 12:46  
дивилася до цього всі серії медіа плеєром. там всюди була лиш 1 доріжка.
в потплеєрі - так, є 2.
серію брала звідси, не кажіть дурниць.

leicheman 
Відео Гуртом - фільмокрай
Відео Гуртом - фільмокрай


З нами з: 03.07.14
Востаннє: 04.12.20
Повідомлень: 5705

2020-04-12 11:51  
Авторе релізу, вийшов блюрей до усіх сезонів + у мене є укр субтитри також до усіх сезонів з нетфліксу, якщо захочете оновити і зробити повну колекцію то пишіть у пп.
-_-B_Е_N_D_E_R-_- 
Забанено
Забанено


З нами з: 03.03.20
Востаннє: 29.10.20
Повідомлень: 738

2020-04-12 11:58  
leicheman написано:
Авторе релізу, вийшов блюрей до усіх сезонів + у мене є укр субтитри також до усіх сезонів з нетфліксу, якщо захочете оновити і зробити повну колекцію то пишіть у пп.

блюр давно є, але записів не збереглося, а пересинхронювати наявні дуже неохота

leicheman 
Відео Гуртом - фільмокрай
Відео Гуртом - фільмокрай


З нами з: 03.07.14
Востаннє: 04.12.20
Повідомлень: 5705

2020-04-13 00:09  
-_-B_Е_N_D_E_R-_- написано:
пересинхронювати наявні дуже неохота


треба тільки фпс змінити з 25 на 23.976

Ваш часовий пояс: GMT + 2 Години

Нова тема   Відповісти