Сікаріо / Sicario (2015) Remux 1080p Ukr/Eng | Sub Eng

Нові коментарі

Нова тема   Відповісти
Автор Повідомлення
IronBee 
Поважний учасник


З нами з: 08.02.10
Востаннє: 16.04.19
Повідомлень: 217

2018-07-14 21:20  
Сікаріо / Sicario (2015) Remux 1080p Ukr/Eng | Sub Eng

Сікаріо / Sicario (2015) Remux 1080p Ukr/Eng | Sub Eng


Жанр: Бойовик, трилер, драма, кримінал, детектив
Країна: США



Кінокомпанія: Black Label Media, Lionsgate, Thunder Road
Режисер: Дені Вільнев
Актори: Емілі Блант, Бенісіо Дель Торо, Джош Бролін, Віктор Ґарбер, Джон Бернтал, Деніел Калуя, Джеффрі Донован, Рауль Макс Трухільо, Генк Роджерсон, Максіміліано Ернандес...

Сюжет:
У Мексиці слово "sicario" означає "найманий вбивця". Між США і Мексикою існує прикордонна зона, в якій закони втрачають свою силу. Кейт Мейсі - агент ФБР, яка має власний ідеалістичний кодекс. Вона пішла працювати до елітного державного відомства, щоб допомогти в боротьбі із наркоторгівлею. Команда, під керівництвом загадкового консультанта з сумнівним минулим, відправляється у таємничу подорож. Кейт Мейсі відкривається жахлива сторона по той бік кордону, де панують насильство і розпуста. Їй доводиться поставити під сумнів весь ідеалізм, щоб залишитися в живих.


Тривалість: 02:01:20
Якість: Remux
Відео:
кодек:
розмір кадру: 1920 х 1080
бітрейт: 33.1 Mб/с

Аудіо # 1:
мова: українська | Line In
переклад: професійний дубльований
кодек: 2.0
бітрейт: 192 кб/с

Аудіо # 2:
мова: англійська
переклад: оригінал
кодек: -HD MA 7.1
бітрейт: 3471 кб/с

Субтитри# 1-3: (форсовані, повні, SDH)
мова: англійська
тип: програмні (м'які)
формат: *.srt
Info
General
Unique ID : 189123540853047401509984741383295515010 (0x8E47DE7A2CCD4DBFC572E8863C68B982)
Complete name : D:\Films\Сікаріо Sicario (2015) Remux 1080p UkrEng Sub Eng[Hurtom].
Format :
Format version : Version 4 / Version 2
File size : 31.1 GiB
Duration : 2 h 1 min
Overall bit rate mode : Variable
Overall bit rate : 36.7 Mb/s
Movie name : Release for RuTracker
Encoded date : UTC 2018-07-14 17:39:40
Writing application : v24.0.0 ('Beyond The Pale') 64-bit
Writing library : libebml v1.3.6 + v1.4.9
Cover : Yes
Attachments : Cover.jpg

Video
ID : 1
Format : AVC
Format/Info : Advanced Video Codec
Format profile : [email protected]
Format settings : CABAC / 4 Ref Frames
Format settings, CABAC : Yes
Format settings, ReFrames : 4 frames
Codec ID : V_MPEG4/ISO/AVC
Duration : 2 h 1 min
Bit rate mode : Variable
Bit rate : 33.1 Mb/s
Maximum bit rate : 35.5 Mb/s
Width : 1 920 pixels
Height : 1 080 pixels
Display aspect ratio : 16:9
Frame rate mode : Constant
Frame rate : 23.976 (24000/1001) FPS
Color space : YUV
Chroma subsampling : 4:2:0
Bit depth : 8 bits
Scan type : Progressive
Bits/(Pixel*Frame) : 0.665
Stream size : 28.0 GiB (90%)
Language : English
Default : Yes
Forced : No

Audio #1
ID : 2
Format : AC-3
Format/Info : Audio Coding 3
Codec ID : A_AC3
Duration : 2 h 1 min
Bit rate mode : Constant
Bit rate : 192 kb/s
Channel(s) : 2 channels
Channel positions : Front: L R
Sampling rate : 48.0 kHz
Frame rate : 31.250 FPS (1536 SPF)
Bit depth : 16 bits
Compression mode : Lossy
Stream size : 167 MiB (1%)
Title : 2.0 професійний дубльований 192 кб/с (Line In)
Language : Ukrainian
Service kind : Complete Main
Default : Yes
Forced : No

Audio #2
ID : 3
Format :
Format/Info : Digital Theater Systems
Format profile : MA / Core
Codec ID : A_DTS
Duration : 2 h 1 min
Bit rate mode : Variable / Constant
Bit rate : 3 471 kb/s / 1 509 kb/s
Channel(s) : 8 channels / 6 channels
Channel positions : Front: L C R, Side: L R, Back: L R, LFE / Front: L C R, Side: L R, LFE
Sampling rate : 48.0 kHz
Frame rate : 93.750 FPS (512 SPF)
Bit depth : 24 bits
Compression mode : Lossless / Lossy
Stream size : 2.94 GiB (9%)
Language : English
Default : No
Forced : No

Text #1
ID : 4
Format : UTF-8
Codec ID : S_TEXT/UTF8
Codec ID/Info : UTF-8 Plain Text
Duration : 1 h 33 min
Bit rate : 4 b/s
Count of elements : 138
Stream size : 2.83 KiB (0%)
Title : Forced
Language : English
Default : No
Forced : No

Text #2
ID : 5
Format : UTF-8
Codec ID : S_TEXT/UTF8
Codec ID/Info : UTF-8 Plain Text
Duration : 1 h 50 min
Bit rate : 44 b/s
Count of elements : 1044
Stream size : 35.9 KiB (0%)
Title : Full
Language : English
Default : No
Forced : No

Text #3
ID : 6
Format : UTF-8
Codec ID : S_TEXT/UTF8
Codec ID/Info : UTF-8 Plain Text
Duration : 1 h 53 min
Bit rate : 48 b/s
Count of elements : 1231
Stream size : 40.1 KiB (0%)
Title : SDH
Language : English
Default : No
Forced : No

Menu
00:00:00.000 : en:Chapter 1
00:07:14.350 : en:Chapter 2
00:12:55.107 : en:Chapter 3
00:20:04.369 : en:Chapter 4
00:25:24.814 : en:Chapter 5
00:32:11.596 : en:Chapter 6
00:39:24.820 : en:Chapter 7
00:46:15.314 : en:Chapter 8
00:53:24.576 : en:Chapter 9
01:01:40.321 : en:Chapter 10
01:10:49.119 : en:Chapter 11
01:18:02.886 : en:Chapter 12
01:30:59.370 : en:Chapter 13
01:36:57.770 : en:Chapter 14
01:47:42.038 : en:Chapter 15
01:54:12.804 : en:Chapter 16
Скріншоти



Подяка пану Covenant за доріжку

Джерело: &
Особиста оцінка: 10 - без зайвих вагань рекомендую всім!


Золотий реліз (завантажене не впливає на рейтинг)
 Трекер:    Зареєстрований   

Завантажити / скачати фільм українською



відео для новачків



 Зареєстрований:   2018-07-14 21:20
 Розмір:   31.14 GB 
 Оцінка фільму:   8.1/10 (Голосів: 14)
   
Інші релізи
   Сікаріо / Sicario (2015) Ukr/Eng igoryek  11 / 0   2.19 GB   2016-06-22 18:11 
   Сікаріо / Sicario (2015) 1080p Ukr/Eng | Sub Eng 11FrYkT  9 / 0   9.55 GB   2016-01-03 14:16 
   Сікаріо / Sicario (2015) 720p Ukr/Eng | Sub Eng 11FrYkT  19 / 0   3.94 GB   2016-01-03 13:19 
   Сікаріо / Sicario (2015) AVC Ukr/Eng Covenant  3 / 0   1.96 GB   2016-01-03 12:33 
   Сікаріо / Sicario (2015) Covenant  12 / 0   1.46 GB   2016-01-03 12:10 
robofob 
Частий відвідувач


З нами з: 05.05.16
Востаннє: 19.04.19
Повідомлень: 42

2018-07-15 01:43  
Чортзна-що і збоку бантик
IronBee 
Поважний учасник


З нами з: 08.02.10
Востаннє: 16.04.19
Повідомлень: 217

2018-07-15 12:36  
Мені сподобався фільм
uaxpasha 
Поважний учасник


З нами з: 05.08.12
Востаннє: 17.04.19
Повідомлень: 243

2018-07-15 19:45  
Один з найкращих бойовиків за останній час
+380954897458 
Поважний учасник


З нами з: 02.06.17
Востаннє: 19.04.19
Повідомлень: 219

2018-07-16 23:36  
Все чудово, тільки Вільньов не Деніс, а Дені, з наголосом на останньому складі, бо він франко-канадець. Один з найпотужніших режисерів сучасності...!!!
igor911 
Відео Гуртом
Відео Гуртом


З нами з: 18.01.08
Востаннє: 20.04.19
Повідомлень: 12307

2018-07-17 08:25  
Цитата:
Дені

+

maxxs 
Новенький


З нами з: 28.09.17
Востаннє: 14.04.19
Повідомлень: 5

2019-01-14 23:57  
Може хто-небудь володіє інформацією коли буде озвучка другої частини? Вже кілька місяців як фільм є в Інтернеті, та української озвучки досі немає.
Дивитися російською бажання не маю.

igor911 
Відео Гуртом
Відео Гуртом


З нами з: 18.01.08
Востаннє: 20.04.19
Повідомлень: 12307

2019-01-15 00:15  
maxxs написано:
коли буде озвучка другої частини?

Support MЕGОGО 23.12.2018 написано:
На жаль, за умовами ліцензійної угоди з правовласниками не передбачено додання українського перекладу.
У тюнсі чи на дисках теж немає. Можливо, згодом десь з'явиться.
maxxs 
Новенький


З нами з: 28.09.17
Востаннє: 14.04.19
Повідомлень: 5

2019-01-22 13:50  
igor911, це біда. Все ж дякую за інформацію.
Kazus78 
Новенький


З нами з: 13.01.17
Востаннє: 01.04.19
Повідомлень: 5

2019-02-06 23:09  
Ні як закачати не можуSad (1) А хо глянути. Піддайте газкуHappy
Ваш часовий пояс: GMT + 2 Години

Нова тема   Відповісти