Факультет / The Faculty (1998) Remux 1080p 2xUkr/Eng | Sub Ukr/Eng

Нові коментарі

Нова тема   Відповісти
Останній раз роздавалося voleksandr (2018-08-13)
Автор Повідомлення
boroznaya 
VIP


З нами з: 02.11.12
Востаннє: 19.09.18
Повідомлень: 2968

2018-07-14 12:37  
Факультет / The Faculty (1998) Remux 1080p 2xUkr/Eng | Sub Ukr/Eng

Факультет / The Faculty (1998) Remux 1080p 2xUkr/Eng | Sub Ukr/Eng

Ще постер!

І ти вважав, що твої учителі були дивні ...

Жанр: жахи, комедія, трилер, детектив, фантастика
Країна: США



Кінокомпанія: Dimension Films, Los Hooligans Productions
Режисер: Роберт Родрігес
Сценарій: Кевін Вільямсон, Девід Вектер, Брюс Кіммел
Продюсер: Елізабет Авеллан, Роберт Родрігес, Білл Скотт, Тамара Сміт, Боб Вайнштейн
Оператор: Енріке Шедьяк
Композитор: Марко Белтрамі
Актори: Джош Гартнетт, Елайджа Вуд, Джордана Брюстер, Клеа ДюВалл, Лора Гаррис, Шон Хетасі, Сальма Гаєк, Фамке Янссен, Пайпер Лорі, Крістофер МакДональд, Бібі Ньювірт, Роберт Патрік
Бюджет: $15 000 000
Маркетинг: $30 000 000
Збори в США: $40 283 321

Сюжет:
Коледж Геррінгтон давно втратив свою первозданність. Його обшарпані коридори щоденно заповнює майбутнє Америки - одинаки і лідери, піжони і наркомани, розумники і кретини. Схожі на підлітків завжди і всюди, вони ведуть постійну боротьбу один з одним. Але одного разу студенти роблять жахливе відкриття: їх викладачі - прибульці з іншої планети! Зіткнувшись з викликом, який вони навіть не могли собі уявити, колишні вороги змушені об'єднатися, щоби врятуватись від іншопланетного вторгнення...

Рейтинг MPAA: R - Особи, які не досягли 17-річного віку, допускаються на сеанс тільки в супроводі батьків або законного представника!
Чи знаєте Ви, що...
* У туалеті можна помітити напис «Tito and Tarantula». Дана група написала частину музики і зіграла в двох інших картинах Родрігеза - «Відчайдушний» (1995) і «Від заходу до світанку» (1996).
* Мерібет відмовляється приймати наркотики, заявивши, що у неї алергія. На що Делайл (Джордана Брюстер) відповідає: «А я португалка». У реальному житті Брюстер вільно говорить португальсько..
* Джон Стюарт виконав роль професора Едварда Ферлонга. Актора Едварда Ферлонга, який зіграв Джона Коннора в «Термінаторі 2: Судний день» (1991), переслідував Т-1000, в ролі якого знявся Роберт Патрік, який зіграв у «Факультеті» тренера Джо Вілліса.
* У сцені, де ми чуємо оголошення про те, що школярі повинні пройти в учительську, одного з них звуть Томмі Нікс. У реальному житті Томмі Нікс - друг Роберта Родрігеза з часів коледжу. Він допомагав Роберту в написанні сценарію до «Гонщикам» (1994)
* Авто Зіка - 1970 Pontiac GTO.
* Роль Делайли була спеціально написана для Харизми Карпентер, але акторка відкинула пропозицію, вважаючи, що даний персонаж дуже схожий на її героїню в «Баффі - винищувачка вампірів» (1997).
* Герої фільму одягнені в одяг «Tommy Hilfiger». Актори, які зіграли головні ролі, також з'явилися в телевізійних роликах і друкованій рекламі даного бренду.
Тривалість: 01:44:29
Якість: Remux 1080p
Відео:
кодек:
розмір кадру: 1920x1080
бітрейт: 20 Mб/с

Аудіо # 1: , ,
мова: українська
переклад: двоголосий закадровий
кодек: 5.1
бітрейт: 448 кб/с

Аудіо # 2: , ,
мова: українська
переклад: двоголосий закадровий
кодек: 2.0
бітрейт: 192 кб/с
примітка: переклад однаковий у доріжках 1-2, різниця у кількості каналів та кращій якості з новіших записів у доріжках 2.0

Аудіо # 3:
мова: українська
переклад: двоголосий закадровий
кодек: 5.1
бітрейт: 448 кб/с

Аудіо # 4:
мова: українська
переклад: двоголосий закадровий
кодек: 2.0
бітрейт: 192 кб/с
примітка: переклад однаковий у доріжках 3-4, різниця у кількості каналів та кращій якості з новіших записів у доріжках 2.0

Аудіо # 5:
мова: англійська
переклад: оригінал
кодек: -HD MA 5.1
бітрейт: 4123 кб/с

Субтитри # 1:
мова: українська
тип: програмні (м'які)
формат: *.srt
переклад: з російської _oles, редагування w2958l

Субтитри # 2:
мова: англійська
тип: програмні (м'які)
формат: *.srt
Info
Код:
[b]General[/b]
Unique ID                   : 112536798057290614765148756097232364479 (0x54A9CC862DAA068A7863C334914963BF)
Complete name               : D:\Фільми\Готові релізи\Faculty (1998) [2xUkr, Eng, sub. Ukr, Eng] Remux 1080p [Hurtom] by Zhuk_Mikola.
Format                      :
Format version              : Version 4 / Version 2
File size                   : 18.5 GiB
Duration                    : 1 h 44 min
Overall bit rate mode       : Variable
Overall bit rate            : 25.4 Mb/s
Encoded date                : UTC 2018-07-23 17:43:24
Writing application         : v20.0.0 ('I Am The Sun') 64-bit
Writing library             : libebml v1.3.5 + v1.4.8

[b]Video[/b]
ID                          : 1
Format                      : AVC
Format/Info                 : Advanced Video Codec
Format profile              : [email protected]
Format settings             : CABAC / 4 Ref Frames
Format settings, CABAC      : Yes
Format settings, ReFrames   : 4 frames
Format settings, GOP        : M=3, N=18
Codec ID                    : V_MPEG4/ISO/AVC
Duration                    : 1 h 44 min
Bit rate mode               : Variable
Bit rate                    : 20.0 Mb/s
Maximum bit rate            : 25.0 Mb/s
Width                       : 1 920 pixels
Height                      : 1 080 pixels
Display aspect ratio        : 16:9
Frame rate mode             : Constant
Frame rate                  : 23.976 (24000/1001) FPS
Standard                    : NTSC
Color space                 : YUV
Chroma subsampling          : 4:2:0
Bit depth                   : 8 bits
Scan type                   : Progressive
Bits/(Pixel*Frame)          : 0.402
Stream size                 : 14.6 GiB (79%)
Language                    : English
Default                     : Yes
Forced                      : No
Color range                 : Limited
Color primaries             : BT.709
Transfer characteristics    : BT.709
Matrix coefficients         : BT.709

[b]Audio #1[/b]
ID                          : 2
Format                      : AC-3
Format/Info                 : Audio Coding 3
Codec ID                    : A_AC3
Duration                    : 1 h 44 min
Bit rate mode               : Constant
Bit rate                    : 448 kb/s
Channel(s)                  : 6 channels
Channel positions           : Front: L C R, Side: L R, LFE
Sampling rate               : 48.0 kHz
Frame rate                  : 31.250 FPS (1536 SPF)
Bit depth                   : 16 bits
Compression mode            : Lossy
Stream size                 : 334 MiB (2%)
Title                       : Двоголосий закадровий [5.1 Ch], ТЕТ, 2+2, 1+1
Language                    : Ukrainian
Service kind                : Complete Main
Default                     : Yes
Forced                      : No

[b]Audio #2[/b]
ID                          : 3
Format                      : AC-3
Format/Info                 : Audio Coding 3
Codec ID                    : A_AC3
Duration                    : 1 h 44 min
Bit rate mode               : Constant
Bit rate                    : 192 kb/s
Channel(s)                  : 2 channels
Channel positions           : Front: L R
Sampling rate               : 48.0 kHz
Frame rate                  : 31.250 FPS (1536 SPF)
Bit depth                   : 16 bits
Compression mode            : Lossy
Stream size                 : 143 MiB (1%)
Title                       : Двоголосий закадровий [2.0 Ch], ТЕТ, 2+2, 1+1
Language                    : Ukrainian
Service kind                : Complete Main
Default                     : No
Forced                      : No

[b]Audio #3[/b]
ID                          : 4
Format                      : AC-3
Format/Info                 : Audio Coding 3
Codec ID                    : A_AC3
Duration                    : 1 h 44 min
Bit rate mode               : Constant
Bit rate                    : 448 kb/s
Channel(s)                  : 6 channels
Channel positions           : Front: L C R, Side: L R, LFE
Sampling rate               : 48.0 kHz
Frame rate                  : 31.250 FPS (1536 SPF)
Bit depth                   : 16 bits
Compression mode            : Lossy
Stream size                 : 334 MiB (2%)
Title                       : Двоголосий закадровий [5.1 Ch], Новий канал
Language                    : Ukrainian
Service kind                : Complete Main
Default                     : No
Forced                      : No

[b]Audio #4[/b]
ID                          : 5
Format                      : AC-3
Format/Info                 : Audio Coding 3
Codec ID                    : A_AC3
Duration                    : 1 h 44 min
Bit rate mode               : Constant
Bit rate                    : 192 kb/s
Channel(s)                  : 2 channels
Channel positions           : Front: L R
Sampling rate               : 48.0 kHz
Frame rate                  : 31.250 FPS (1536 SPF)
Bit depth                   : 16 bits
Compression mode            : Lossy
Stream size                 : 143 MiB (1%)
Title                       : Двоголосий закадровий [2.0 Ch], Новий канал
Language                    : Ukrainian
Service kind                : Complete Main
Default                     : No
Forced                      : No

[b]Audio #5[/b]
ID                          : 6
Format                      :
Format/Info                 : Digital Theater Systems
Format profile              : MA / Core
Codec ID                    : A_DTS
Duration                    : 1 h 44 min
Bit rate mode               : Variable / Constant
Bit rate                    : 4 123 kb/s / 1 509 kb/s
Channel(s)                  : 6 channels
Channel positions           : Front: L C R, Side: L R, LFE
Sampling rate               : 48.0 kHz
Frame rate                  : 93.750 FPS (512 SPF)
Bit depth                   : 24 bits
Compression mode            : Lossless / Lossy
Stream size                 : 3.00 GiB (16%)
Language                    : English
Default                     : No
Forced                      : No

[b]Text #1[/b]
ID                          : 7
Format                      : UTF-8
Codec ID                    : S_TEXT/UTF8
Codec ID/Info               : UTF-8 Plain Text
Duration                    : 1 h 38 min
Bit rate                    : 78 b/s
Count of elements           : 919
Stream size                 : 56.9 KiB (0%)
Language                    : Ukrainian
Default                     : Yes
Forced                      : No

[b]Text #2[/b]
ID                          : 8
Format                      : UTF-8
Codec ID                    : S_TEXT/UTF8
Codec ID/Info               : UTF-8 Plain Text
Duration                    : 1 h 38 min
Bit rate                    : 56 b/s
Count of elements           : 1122
Stream size                 : 40.6 KiB (0%)
Language                    : English
Default                     : No
Forced                      : No
Скріншоти









За запис з ТБ подяка панам: slavik_v_z, Bohdan237, Neytreenor (новіщі записи доріжок 2.0), greg_7 та DareDevil96 (старіші записи, у доріжках псевдо-5.1); за синхронізацію панам Arsenfpu (2.0) та _oles (псевдо-5.1), за постери панам - realnitro та Zhuk_Mikola!

Джерело: &
Особиста оцінка: 10 - без зайвих вагань рекомендую всім!
Над релізом працював -
Не забуваємо подякувати релізеру!


Золотий реліз (завантажене не впливає на рейтинг)
 Трекер:    Зареєстрований   

Завантажити / скачати фільм українською



відео для новачків



 Зареєстрований:   2018-07-27 14:40
 Розмір:   18.49 GB 
 Оцінка фільму:   9.1/10 (Голосів: 7)
   
Інші релізи
   Факультет / The Faculty (1998) 1080p 2xUkr/Eng | Sub Ukr/Eng boroznaya  1 / 0   12.07 GB   2018-07-27 14:12 
   Факультет / The Faculty (1998) AVC 2xUkr/Eng | Sub Ukr Arsenfpu  9 / 0   2.54 GB   2017-12-09 00:50 
   Факультет / The Faculty (1998) [MP4, 640x] apvAltisimo  1 / 0   621 MB   2016-04-03 15:33 
   Факультет / The Faculty (1998) 720p 2xUkr/Eng | Sub Ukr/Eng Hurtomivets'  2 / 0   5.57 GB   2012-02-05 00:17 
   Факультет / The Faculty (1998) 2xUkr/Eng | Sub Ukr/Eng _oles  1 / 0   2.51 GB   2012-02-04 11:10 
bot 
робот


З нами з: 30.09.07
Востаннє: 26.05.05
Повідомлень: 19812

2018-07-27 13:58  
Тему перенесено з Анонси релізів до форуму Фільми в HD


boroznaya

igor911 
Відео Гуртом
Відео Гуртом


З нами з: 18.01.08
Востаннє: 21.09.18
Повідомлень: 11041

2018-07-27 14:21  
boroznaya написано:
Тему перенесено з Анонси релізів до форуму Фільми в HD
Навіщо переносити тему в розділ без торента?
boroznaya 
VIP


З нами з: 02.11.12
Востаннє: 19.09.18
Повідомлень: 2968

2018-07-27 15:00  
Фільм "Факультет" на роздачі!
Приємного перегляду, Гуртомівці!

Ваш часовий пояс: GMT + 2 Години

Нова тема   Відповісти