Пустун / Littleman (2006) Remux 1080p Ukr/Eng | Sub Ukr/Eng

Нові коментарі

Нова тема   Відповісти
Останній раз роздавалося vlad7919 (2018-08-28)
Автор Повідомлення
boroznaya 
Попереджень: 1
Попереджень: 1 


З нами з: 02.11.12
Востаннє: 16.11.18
Повідомлень: 2967

2018-07-14 11:03  
Пустун / Littleman (2006) Remux 1080p Ukr/Eng | Sub Ukr/Eng

Пустун / Littleman (2006) Remux 1080p Ukr/Eng | Sub Ukr/Eng

Ще постер!


Жанр: комедія, кримінальний
Країна: США, Канада



Кінокомпанія: Revolution Studios, Wayans Bros. Entertainment, Columbia - Sony Pictures
Режисер: Кінен Айворі Вейанс
Актори: Марлон Вейанс, Шон Вейанс, Керрі Вашингтон, Джон Візерспун, Трейсі Морган, Лохлін Монро, Чазз Пальмінтері, Моллі Шеннон, Девід Алан Грайр, Дейв Шерідан

Сюжет:
Одного дня вранці Дерріл Едвардс і його дружина виявляють на порозі свого будинку кошик з немовлям. Дерріл, що вже давно мріяв про дитя, вирішує взяти малюка на виховання. Але підкидьок – зовсім не дитя... Це злочинець-коротун Келвін Сімс який полює за рідкісним діамантом і за збігом обставин опинився біля господарів будинку. І, схоже, лише дідусь-пенсіонер розуміє, кого вони поселили...


Тривалість: 01:37:39
Якість: Remux 1080p
Відео:
кодек: MPEG 2
розмір кадру: 1920x1080
бітрейт: 18,4 Mб/с

Аудіо # 1:
мова: українська
переклад: багатоголосий закадровий
кодек: 2.0
бітрейт: 192 кб/с

Аудіо # 2:
мова: англійська
переклад: оригінал
кодек: -HD MA 5.1
бітрейт: 2151 кб/с

Субтитри # 1:
мова: українська
тип: програмні (м'які)
формат: *.srt

Субтитри # 2:
мова: англійська
тип: програмні (м'які)
формат: *.srt
Info
Код:
[b]General[/b]
Unique ID                   : 176271214297859722479091162782586346580 (0x849C99DACE819D85A1BFD6B14F279C54)
Complete name               : D:\Фільми\Готові релізи\Little Man (2006) [Ukr, Eng, sub. Ukr, Eng] Remux 1080p [Hurtom] by Zhuk_Mikola.
Format                      :
Format version              : Version 4 / Version 2
File size                   : 14.2 GiB
Duration                    : 1 h 37 min
Overall bit rate mode       : Variable
Overall bit rate            : 20.8 Mb/s
Encoded date                : UTC 2018-07-19 18:09:16
Writing application         : v20.0.0 ('I Am The Sun') 64-bit
Writing library             : libebml v1.3.5 + v1.4.8

[b]Video[/b]
ID                          : 1
Format                      : MPEG Video
Format version              : Version 2
Format profile              : [email protected]
Format settings             : CustomMatrix / BVOP
Format settings, BVOP       : Yes
Format settings, Matrix     : Custom
Format settings, GOP        : M=3, N=15
Codec ID                    : V_MPEG2
Codec ID/Info               : MPEG 1 or 2 Video
Duration                    : 1 h 37 min
Bit rate mode               : Variable
Bit rate                    : 18.4 Mb/s
Maximum bit rate            : 35.0 Mb/s
Width                       : 1 920 pixels
Height                      : 1 080 pixels
Display aspect ratio        : 16:9
Frame rate mode             : Constant
Frame rate                  : 23.976 (24000/1001) FPS
Color space                 : YUV
Chroma subsampling          : 4:2:0
Bit depth                   : 8 bits
Scan type                   : Progressive
Compression mode            : Lossy
Bits/(Pixel*Frame)          : 0.371
Time code of first frame    : 00:00:00:00
Time code source            : Group of pictures header
GOP, Open/Closed            : Open
GOP, Open/Closed of first f : Closed
Stream size                 : 12.6 GiB (89%)
Language                    : English
Default                     : Yes
Forced                      : No

[b]Audio #1[/b]
ID                          : 2
Format                      : AC-3
Format/Info                 : Audio Coding 3
Codec ID                    : A_AC3
Duration                    : 1 h 37 min
Bit rate mode               : Constant
Bit rate                    : 192 kb/s
Channel(s)                  : 2 channels
Channel positions           : Front: L R
Sampling rate               : 48.0 kHz
Frame rate                  : 31.250 FPS (1536 SPF)
Bit depth                   : 16 bits
Compression mode            : Lossy
Stream size                 : 134 MiB (1%)
Title                       : Багатоголосий закадровий, Новий канал
Language                    : Ukrainian
Service kind                : Complete Main
Default                     : Yes
Forced                      : No

[b]Audio #2[/b]
ID                          : 3
Format                      :
Format/Info                 : Digital Theater Systems
Format profile              : MA / Core
Codec ID                    : A_DTS
Duration                    : 1 h 37 min
Bit rate mode               : Variable / Constant
Bit rate                    : 2 151 kb/s / 1 509 kb/s
Channel(s)                  : 6 channels
Channel positions           : Front: L C R, Side: L R, LFE
Sampling rate               : 48.0 kHz
Frame rate                  : 93.750 FPS (512 SPF)
Bit depth                   : 16 bits
Compression mode            : Lossless / Lossy
Stream size                 : 1.47 GiB (10%)
Language                    : English
Default                     : No
Forced                      : No

[b]Text #1[/b]
ID                          : 4
Format                      : UTF-8
Codec ID                    : S_TEXT/UTF8
Codec ID/Info               : UTF-8 Plain Text
Duration                    : 1 h 30 min
Bit rate                    : 119 b/s
Count of elements           : 1469
Stream size                 : 79.0 KiB (0%)
Language                    : Ukrainian
Default                     : No
Forced                      : No

[b]Text #2[/b]
ID                          : 5
Format                      : UTF-8
Codec ID                    : S_TEXT/UTF8
Codec ID/Info               : UTF-8 Plain Text
Duration                    : 1 h 30 min
Bit rate                    : 77 b/s
Count of elements           : 1451
Stream size                 : 51.4 KiB (0%)
Language                    : English
Default                     : No
Forced                      : No
Скріншоти




Подяки:
Запис з ТБ: OlegCena
Синхронізація: Vasua95
Постери: HectoR_UA

Джерело: &
Особиста оцінка: 8 - мені сподобалося
Над релізом працював -
Не забуваємо подякувати релізеру!


Золотий реліз (завантажене не впливає на рейтинг)
 Трекер:    Зареєстрований   

Завантажити / скачати фільм українською



відео для новачків



 Зареєстрований:   2018-07-21 09:02
 Розмір:   14.19 GB 
 Оцінка фільму:   7.3/10 (Голосів: 9)
   
Інші релізи
   Пустун / Littleman (2006) 720p Ukr/Eng kino.  0 / 0   4.5 GB   2013-11-15 16:35 
   Пустун / Littleman (2006) AngryBirdsUA  3 / 0   1.28 GB   2013-11-14 17:29 
bot 
робот


З нами з: 30.09.07
Востаннє: 26.05.05
Повідомлень: 20154

2018-07-21 09:01  
Тему перенесено з Анонси релізів до форуму Фільми в HD


boroznaya

boroznaya 
Попереджень: 1
Попереджень: 1 


З нами з: 02.11.12
Востаннє: 16.11.18
Повідомлень: 2967

2018-07-21 09:27  
Фільм "Пустун" на роздачі!
Приємного перегляду, Гуртомівці!

Mayden2 
Новенький


З нами з: 30.06.14
Востаннє: 15.11.18
Повідомлень: 6

2018-07-21 18:30  
Колись дивився цей фільм, то дуже сподобався, не розумію чому такий низький рейтинг.
Ваш часовий пояс: GMT + 2 Години

Нова тема   Відповісти