Родина Блю під прикриттям (З життя таємних агентів) / Undercover Blues (1993) 1080p 2xUkr/Eng | Sub Eng

Нові коментарі

Нова тема   Відповісти
Автор Повідомлення
Anonymous 







2018-07-14 09:49  
Родина Блю під прикриттям / З життя таємних агентів / Undercover Blues (1993) 1080p 2xUkr/Eng | Sub Eng

Родина Блю під прикриттям (З життя таємних агентів) / Undercover Blues (1993) 1080p 2xUkr/Eng | Sub Eng


Жанр: комедія, кримінальний
Країна: США



Кінокомпанія: Metro-Goldwyn-Mayer (MGM)
Режисер: Йєн Абрамс / Ian Abrams
Актори: Кетлін Тернер, Денніс Квейд, Фіона Шоу, Стенлі Туччі, Ларрі Міллер, Обба Бабатунде та інші

Сюжет:
Суперагенти ФБР та ЦРУ Джефф і Джейн у зв'язку із народженням доньки взяли відпустку, яку вирішили провести в Новому Орлеані. Але відпочити не вийшло. Джефф відразу ж зацікавив місцеву поліцію, коли, вийшовши на вулицю з дитиною, відбився від двох озброєних грабіжників, один з яких був відомий всій окрузі під прізвиськом «Смерть».


Тривалість: 01:30:13
Якість: 1080p
Відео:
кодек:
розмір кадру: 1920х1040
бітрейт: 11,4 Mb/s

Аудіо # 1:
мова: українська
переклад: багатоголосий закадровий |
кодек: 2.0
бітрейт: 192 кб/с

Аудіо # 2:
мова: українська
переклад: багатоголосий закадровий |
кодек: 2.0
бітрейт: 192 кб/с
Примітка щодо якості доріжки з трансляції ICTV

В проміжку 00:57:08-00:57:11 через дроп було втрачено переклад, тому озвучення (3 секунди) використано з каналу AMC. Також канал ICTV вирізав кінцеві титри під час яких було втрачено ще декілька фраз - також накладено озвучення від каналу AMC
Аудіо # 3:
мова: англійська
переклад: оригінал
кодек: 2.0
бітрейт: 1509 кб/с

Субтитри:
мова: англійська
тип: програмні (м'які)
формат: *.srt
Info
General
Unique ID : 182313601135632344572573268604944137128 (0x89285286D0B8B9878339DE5D81043BA8)
Format :
Format version : Version 4 / Version 2
File size : 8.41 GiB
Duration : 1 h 30 min
Overall bit rate : 13.3 Mb/s
Movie name : Undercover.Blues.1993..1080p
Encoded date : UTC 2018-07-14 07:34:44
Writing application : v6.1.0 ('Old Devil') built on Mar 4 2013 09:10:42
Writing library : libebml v1.3.0 + v1.4.0

Video
ID : 1
Format : AVC
Format/Info : Advanced Video Codec
Format profile : [email protected]
Format settings : CABAC / 4 Ref Frames
Format settings, CABAC : Yes
Format settings, ReFrames : 4 frames
Codec ID : V_MPEG4/ISO/AVC
Duration : 1 h 30 min
Bit rate : 11.2 Mb/s
Width : 1 920 pixels
Height : 1 040 pixels
Display aspect ratio : 1.85:1
Frame rate mode : Constant
Frame rate : 23.976 (24000/1001) FPS
Color space : YUV
Chroma subsampling : 4:2:0
Bit depth : 8 bits
Scan type : Progressive
Bits/(Pixel*Frame) : 0.234
Stream size : 7.05 GiB (84%)
Writing library : core 148 r2665 a01e339
Encoding settings : cabac=1 / ref=4 / deblock=1:-1:-2 / analyse=0x3:0x133 / me=umh / subme=10 / psy=1 / psy_rd=1.00:0.15 / mixed_ref=1 / me_range=24 / chroma_me=1 / trellis=2 / 8x8dct=1 / cqm=0 / deadzone=21,11 / fast_pskip=0 / chroma_qp_offset=-3 / threads=12 / lookahead_threads=2 / sliced_threads=0 / nr=0 / decimate=1 / interlaced=0 / bluray_compat=0 / constrained_intra=0 / bframes=8 / b_pyramid=2 / b_adapt=2 / b_bias=0 / direct=3 / weightb=1 / open_gop=0 / weightp=2 / keyint=250 / keyint_min=23 / scenecut=40 / intra_refresh=0 / rc_lookahead=60 / rc=crf / mbtree=1 / crf=19.0 / qcomp=0.60 / qpmin=0 / qpmax=69 / qpstep=4 / ip_ratio=1.40 / aq=1:0.90
Language : English
Default : Yes
Forced : No
Statistics Tags Issue : v8.3.0 ('Over the Horizon') 64bit 2016-02-02 05:22:17 / v6.1.0 ('Old Devil') built on Mar 4 2013 09:10:42 2018-07-14 07:34:44
FromStats_BitRate : 11445060
FromStats_Duration : 01:30:13.241000000
FromStats_FrameCount : 129788
FromStats_StreamSize : 7744358944

Audio #1
ID : 2
Format : AC-3
Format/Info : Audio Coding 3
Codec ID : A_AC3
Duration : 1 h 30 min
Bit rate mode : Constant
Bit rate : 192 kb/s
Channel(s) : 2 channels
Channel positions : Front: L R
Sampling rate : 48.0 kHz
Frame rate : 31.250 FPS (1536 SPF)
Bit depth : 16 bits
Compression mode : Lossy
Stream size : 124 MiB (1%)
Title : UKR (AMC)
Language : Ukrainian
Service kind : Complete Main
Default : Yes
Forced : Yes

Audio #2
ID : 3
Format : AC-3
Format/Info : Audio Coding 3
Codec ID : A_AC3
Duration : 1 h 30 min
Bit rate mode : Constant
Bit rate : 192 kb/s
Channel(s) : 2 channels
Channel positions : Front: L R
Sampling rate : 48.0 kHz
Frame rate : 31.250 FPS (1536 SPF)
Bit depth : 16 bits
Compression mode : Lossy
Stream size : 124 MiB (1%)
Title : UKR (ICTV)
Language : Ukrainian
Service kind : Complete Main
Default : No
Forced : No

Audio #3
ID : 4
Format :
Format/Info : Digital Theater Systems
Codec ID : A_DTS
Duration : 1 h 30 min
Bit rate mode : Constant
Bit rate : 1 509 kb/s
Channel(s) : 2 channels
Channel positions : Front: L R
Sampling rate : 48.0 kHz
Frame rate : 93.750 FPS (512 SPF)
Bit depth : 24 bits
Compression mode : Lossy
Stream size : 974 MiB (11%)
Language : English
Default : No
Forced : No
Statistics Tags Issue : v8.3.0 ('Over the Horizon') 64bit 2016-02-02 05:22:17 / v6.1.0 ('Old Devil') built on Mar 4 2013 09:10:42 2018-07-14 07:34:44
FromStats_BitRate : 1508999
FromStats_Duration : 01:30:13.260000000
FromStats_FrameCount : 507493
FromStats_StreamSize : 1021075980

Text
ID : 5
Format : UTF-8
Codec ID : S_TEXT/UTF8
Codec ID/Info : UTF-8 Plain Text
Title : ENG
Language : English
Default : Yes
Forced : No

Menu
00:00:00.000 : en:Chapter 1
00:00:10.927 : en:Chapter 2
00:10:04.312 : en:Chapter 3
00:21:08.809 : en:Chapter 4
00:31:23.298 : en:Chapter 5
00:42:03.437 : en:Chapter 6
00:53:11.062 : en:Chapter 7
01:06:48.587 : en:Chapter 8
01:18:52.644 : en:Chapter 9
01:30:02.313 : en:Chapter 10
Скріншоти





Подяка пану Sando7 за запис звуку з каналу AMC, а також пану Electroz за звукову доріжку №1
Подяка пану Bohdan237 за запис звуку з каналу ICTV
Особиста подяка пану denixx за надану матеріальну допомогу на підтримку цього і майбутніх релізів.
Джерело:


Срібний реліз (на рейтинг впливає 50% завантаженого)
 Трекер:    Зареєстрований   

Завантажити / скачати фільм українською



відео для новачків



 Зареєстрований:   2018-07-14 09:49
 Розмір:   8.41 GB 
 Оцінка фільму:   10/10 (Голосів: 4)
   
Ваш часовий пояс: GMT + 2 Години

Нова тема   Відповісти