Десяте королівство (Серії 1-5) / The 10th Kingdom (Episodes 1-5) (2000) AVC 2хUkr/Eng | Sub Eng

Нові коментарі

Нова тема   Відповісти
Автор Повідомлення
staf777 
Попереджень: 1
Попереджень: 1 


З нами з: 16.11.16
Востаннє: 23.07.18
Повідомлень: 1274

2018-07-14 08:03  
Десяте королівство (Серії 1-5) / The 10th Kingdom (Episodes 1-5) (2000) AVC 2хUkr/Eng | Sub Eng

Десяте королівство (Серії 1-5) / The 10th Kingdom (Episodes 1-5) (2000) AVC 2хUkr/Eng | Sub Eng
Оригінальний постер

Десяте королівство (Серії 1-5) / The 10th Kingdom (Episodes 1-5) (2000) AVC 2хUkr/Eng | Sub Eng
Жанр: сімейний, фентезі, пригодницький, комедія, детектив, екшн, мелодрама, романтичний
Країна: Велика Британія, Німеччина, США



Кінокомпанія: Babelsberg Film und Fernsehen, Carnival Film & Television, Hallmark Entertainment, NBC Studios, Production Line
Режисер: Девід Карсон / David Carson
Актори: Кімберлі Вільямс-Пейслі / Kimberly Williams-Paisley, Скотт Коен / Scott Cohen, Джон Ларрокет / John Larroquette, Діана Вейст / Dianne Wiest, Деніел Лапейн / Daniel Lapaine, Ед О’Ніл / Ed O'Neill, Рутґер Гауер / Rutger Hauer та інші

Сюжет:
Казкова пригода зачарованого принца і шляхетної дівчини, яка відбувається у світах, з'єднаних магічними дзеркалами-порталами. Все почалося в момент, коли зла королева обміняла тілами спадкоємця четвертого королівства та собаку, а той втік магічним дзеркалом у сучасний Нью-Йорк. Там він натрапляє на Вірджинію та її батька Тоні. Але коли вони спробували втекти у світ принца, Вірджинію викрали Тролі, а Тоні із спадкоємцем трону, Венделом, опинилися у в'язниці. Тим часом зла королева готує коронацію фальшивого наставника, щоб заволодіти цілим королівством і помститися Білосніжці...


Тривалість: 1 серія: 01:25:00 (цілком серій: 5)
Якість: AVC
Відео:
кодек:
розмір кадру: 1024x576
бітрейт: ~ 2810 кб/с

Аудіо # 1:
мова: українська
переклад: багатоголосий закадровий
кодек: 2.0
бітрейт: 192 кб/с

Аудіо # 2:
мова: українська
переклад: багатоголосий закадровий
кодек: 2.0
бітрейт: 192 кб/с

Аудіо # 3:
мова: англійська
переклад: оригінал
кодек: 5.1
бітрейт: 448 кб/с

Субтитри # 1-2:
мова: англійська
тип: програмні (м'які)
формат: *.srt
Info
General
Unique ID : 310105064760628448464795853672971362367 (0xE94C10219C6CF4D8FFAE8B619FE5E03F)
Complete name : H:\The 10th Kingdom E03 (2000) AVC [2xUKR_ENG] [Hurtom].
Format :
Format version : Version 4 / Version 2
File size : 2.17 GiB
Duration : 1 h 25 min
Overall bit rate : 3 645 kb/s
Movie name : The 10th Kingdom E03 (2000) AVC [2xUKR_ENG] [Hurtom]
Encoded date : UTC 2018-07-14 06:49:03
Writing application : v24.0.0 ('Beyond The Pale') 64-bit
Writing library : libebml v1.3.6 + v1.4.9
Cover : Yes
Attachments : cover.jpg

Video
ID : 1
Format : AVC
Format/Info : Advanced Video Codec
Format profile : [email protected]
Format settings : CABAC / 5 Ref Frames
Format settings, CABAC : Yes
Format settings, ReFrames : 5 frames
Codec ID : V_MPEG4/ISO/AVC
Duration : 1 h 25 min
Bit rate mode : Constant
Bit rate : 2 810 kb/s
Width : 1 024 pixels
Height : 576 pixels
Display aspect ratio : 16:9
Frame rate mode : Constant
Frame rate : 25.000 FPS
Color space : YUV
Chroma subsampling : 4:2:0
Bit depth : 8 bits
Scan type : Progressive
Bits/(Pixel*Frame) : 0.191
Stream size : 1.68 GiB (77%)
Default : Yes
Forced : No

Audio #1
ID : 2
Format : AC-3
Format/Info : Audio Coding 3
Codec ID : A_AC3
Duration : 1 h 25 min
Bit rate mode : Constant
Bit rate : 192 kb/s
Channel(s) : 2 channels
Channel positions : Front: L R
Sampling rate : 48.0 kHz
Frame rate : 31.250 FPS (1536 SPF)
Bit depth : 16 bits
Compression mode : Lossy
Stream size : 117 MiB (5%)
Title : [UA-MVO-НЛО-ТВ]
Language : Ukrainian
Service kind : Complete Main
Default : Yes
Forced : Yes

Audio #2
ID : 3
Format : AC-3
Format/Info : Audio Coding 3
Codec ID : A_AC3
Duration : 1 h 25 min
Bit rate mode : Constant
Bit rate : 192 kb/s
Channel(s) : 2 channels
Channel positions : Front: L R
Sampling rate : 48.0 kHz
Frame rate : 31.250 FPS (1536 SPF)
Bit depth : 16 bits
Compression mode : Lossy
Stream size : 117 MiB (5%)
Title : [UA-MVO-ICTV]
Language : Ukrainian
Service kind : Complete Main
Default : No
Forced : No

Audio #3
ID : 4
Format : AC-3
Format/Info : Audio Coding 3
Codec ID : A_AC3
Duration : 1 h 25 min
Bit rate mode : Constant
Bit rate : 448 kb/s
Channel(s) : 6 channels
Channel positions : Front: L C R, Side: L R, LFE
Sampling rate : 48.0 kHz
Frame rate : 31.250 FPS (1536 SPF)
Bit depth : 16 bits
Compression mode : Lossy
Stream size : 274 MiB (12%)
Title : [Original]
Language : English
Service kind : Complete Main
Default : No
Forced : No

Text #1
ID : 5
Format : UTF-8
Codec ID : S_TEXT/UTF8
Codec ID/Info : UTF-8 Plain Text
Duration : 1 h 22 min
Bit rate : 70 b/s
Count of elements : 1606
Stream size : 42.9 KiB (0%)
Language : English
Default : No
Forced : No

Text #2
ID : 6
Format : UTF-8
Codec ID : S_TEXT/UTF8
Codec ID/Info : UTF-8 Plain Text
Duration : 1 h 25 min
Bit rate : 77 b/s
Count of elements : 1793
Stream size : 48.3 KiB (0%)
Language : English
Default : No
Forced : No
Скріншоти




Джерело: &
Подяки за українські доріжки: 1) ratbol, bambulla - запис з ТБ, voin747 - синхронізація; 2) Konfucius
Особиста оцінка: 0 - не дивився
Десяте королівство (Серії 1-5) / The 10th Kingdom (Episodes 1-5) (2000) AVC 2хUkr/Eng | Sub Eng




Срібний реліз (на рейтинг впливає 50% завантаженого)
 Трекер:    Зареєстрований   

Завантажити / скачати серіал українською



відео для новачків



 Зареєстрований:   2018-07-14 16:12
 Розмір:   10.82 GB 
 Оцінка серіалу:   10/10 (Голосів: 7)
   
bot 
робот


З нами з: 30.09.07
Востаннє: 26.05.05
Повідомлень: 19373

2018-07-14 16:12  
Тему перенесено з Анонси релізів до форуму Телесеріали


staf777

Garnunja 
Новенький


З нами з: 23.12.14
Востаннє: 21.07.18
Повідомлень: 9

2018-07-14 21:25  
Дякую! Може хоч зараз подивлюся повністю
Sokolova Kseniya 
Новенький


З нами з: 11.06.17
Востаннє: 19.07.18
Повідомлень: 4

2018-07-15 14:23  
Дуже дякую. я давно мріяла подивитись цей серіал рідною мовою.
igor911 
Відео Гуртом
Відео Гуртом


З нами з: 18.01.08
Востаннє: 23.07.18
Повідомлень: 10570

2018-07-15 14:44  
Sokolova Kseniya написано:
я давно мріяла подивитись цей серіал рідною мовою

Цей серіал з українським озвученням присутній на нашому трекері вже 8,5 років.

Ваш часовий пояс: GMT + 2 Години

Нова тема   Відповісти