Десяте королівство (Серії 1-5) / The 10th Kingdom (Episodes 1-5) (2000) 1080p 2хUkr/Eng | Sub Eng

Нові коментарі

Нова тема   Відповісти
Автор Повідомлення
staf777 
Попереджень: 1
Попереджень: 1 


З нами з: 16.11.16
Востаннє: 23.09.18
Повідомлень: 1518

2018-07-14 08:01  
Десяте королівство (Серії 1-5) / The 10th Kingdom (Episodes 1-5) (2000) 1080p 2хUkr/Eng | Sub Eng

Десяте королівство (Серії 1-5) / The 10th Kingdom (Episodes 1-5) (2000) 1080p 2хUkr/Eng | Sub Eng
Оригінальний постер

Десяте королівство (Серії 1-5) / The 10th Kingdom (Episodes 1-5) (2000) 1080p 2хUkr/Eng | Sub Eng
Жанр: сімейний, фентезі, пригодницький, комедія, детектив, екшн, мелодрама, романтичний
Країна: Велика Британія, Німеччина, США



Кінокомпанія: Babelsberg Film und Fernsehen, Carnival Film & Television, Hallmark Entertainment, NBC Studios, Production Line
Режисер: Девід Карсон / David Carson
Актори: Кімберлі Вільямс-Пейслі / Kimberly Williams-Paisley, Скотт Коен / Scott Cohen, Джон Ларрокет / John Larroquette, Діана Вейст / Dianne Wiest, Деніел Лапейн / Daniel Lapaine, Ед О’Ніл / Ed O'Neill, Рутґер Гауер / Rutger Hauer та інші

Сюжет:
Казкова пригода зачарованого принца і шляхетної дівчини, яка відбувається у світах, з'єднаних магічними дзеркалами-порталами. Все почалося в момент, коли зла королева обміняла тілами спадкоємця четвертого королівства та собаку, а той втік магічним дзеркалом у сучасний Нью-Йорк. Там він натрапляє на Вірджинію та її батька Тоні. Але коли вони спробували втекти у світ принца, Вірджинію викрали Тролі, а Тоні із спадкоємцем трону, Венделом, опинилися у в'язниці. Тим часом зла королева готує коронацію фальшивого наставника, щоб заволодіти цілим королівством і помститися Білосніжці...


Тривалість: 1 серія: 01:25:00 (цілком серій: 5)
Якість: 1080p
Відео:
кодек:
розмір кадру: 1920x1080
бітрейт: ~ 14.0 Mб/с

Аудіо # 1:
мова: українська
переклад: багатоголосий закадровий
кодек: 2.0
бітрейт: 192 кб/с

Аудіо # 2:
мова: українська
переклад: багатоголосий закадровий
кодек: 2.0
бітрейт: 192 кб/с

Аудіо # 3:
мова: англійська
переклад: оригінал
кодек: 5.1
бітрейт: 448 кб/с

Субтитри:
мова: англійська
тип: програмні (м'які)
формат: *.srt
Info
General
Unique ID : 263210162963297829600808208762819327052 (0xC6046EF6B292EFC887850F15B3B4344C)
Complete name : H:\The 10th Kingdom E02 (2000) 1080p [2xUKR_ENG] [Hurtom].
Format :
Format version : Version 4 / Version 2
File size : 8.78 GiB
Duration : 1 h 24 min
Overall bit rate : 14.8 Mb/s
Movie name : The 10th Kingdom E02 (2000) 1080p [2xUKR_ENG] [Hurtom]
Encoded date : UTC 2018-07-14 17:32:53
Writing application : v24.0.0 ('Beyond The Pale') 64-bit
Writing library : libebml v1.3.6 + v1.4.9
Cover : Yes
Attachments : cover.jpg / Log .log

Video
ID : 1
Format : AVC
Format/Info : Advanced Video Codec
Format profile : [email protected]
Format settings : CABAC / 4 Ref Frames
Format settings, CABAC : Yes
Format settings, ReFrames : 4 frames
Codec ID : V_MPEG4/ISO/AVC
Duration : 1 h 24 min
Bit rate : 14.0 Mb/s
Width : 1 920 pixels
Height : 1 080 pixels
Display aspect ratio : 16:9
Frame rate mode : Constant
Frame rate : 25.000 FPS
Color space : YUV
Chroma subsampling : 4:2:0
Bit depth : 8 bits
Scan type : Progressive
Bits/(Pixel*Frame) : 0.270
Stream size : 8.28 GiB (94%)
Title : The 10th Kingdom Part-2 2000 1080p [MediaClub - MINION]
Writing library : core 148 r2638 7599210
Encoding settings : cabac=1 / ref=4 / deblock=1:-3:-3 / analyse=0x3:0x133 / me=umh / subme=11 / psy=1 / psy_rd=1.00:0.10 / mixed_ref=1 / me_range=48 / chroma_me=1 / trellis=2 / 8x8dct=1 / cqm=0 / deadzone=21,11 / fast_pskip=0 / chroma_qp_offset=-3 / threads=6 / lookahead_threads=1 / sliced_threads=0 / nr=0 / decimate=0 / interlaced=0 / bluray_compat=0 / constrained_intra=0 / bframes=8 / b_pyramid=2 / b_adapt=2 / b_bias=0 / direct=3 / weightb=1 / open_gop=0 / weightp=2 / keyint=250 / keyint_min=25 / scenecut=40 / intra_refresh=0 / rc=2pass / mbtree=0 / bitrate=14000 / ratetol=1.0 / qcomp=0.60 / qpmin=10 / qpmax=51 / qpstep=4 / cplxblur=20.0 / qblur=0.5 / ip_ratio=1.40 / pb_ratio=1.30 / aq=1:1.00
Language : English
Default : Yes
Forced : No

Audio #1
ID : 2
Format : AC-3
Format/Info : Audio Coding 3
Codec ID : A_AC3
Duration : 1 h 24 min
Bit rate mode : Constant
Bit rate : 192 kb/s
Channel(s) : 2 channels
Channel positions : Front: L R
Sampling rate : 48.0 kHz
Frame rate : 31.250 FPS (1536 SPF)
Bit depth : 16 bits
Compression mode : Lossy
Stream size : 116 MiB (1%)
Title : MVO - НЛО-ТВ
Language : Ukrainian
Service kind : Complete Main
Default : Yes
Forced : Yes

Audio #2
ID : 3
Format : AC-3
Format/Info : Audio Coding 3
Codec ID : A_AC3
Duration : 1 h 24 min
Bit rate mode : Constant
Bit rate : 192 kb/s
Channel(s) : 2 channels
Channel positions : Front: L R
Sampling rate : 48.0 kHz
Frame rate : 31.250 FPS (1536 SPF)
Bit depth : 16 bits
Compression mode : Lossy
Stream size : 116 MiB (1%)
Title : MVO - ICTV
Language : Ukrainian
Service kind : Complete Main
Default : No
Forced : No

Audio #3
ID : 4
Format : AC-3
Format/Info : Audio Coding 3
Codec ID : A_AC3
Duration : 1 h 24 min
Bit rate mode : Constant
Bit rate : 448 kb/s
Channel(s) : 6 channels
Channel positions : Front: L C R, Side: L R, LFE
Sampling rate : 48.0 kHz
Frame rate : 31.250 FPS (1536 SPF)
Bit depth : 16 bits
Compression mode : Lossy
Stream size : 271 MiB (3%)
Language : English
Service kind : Complete Main
Default : No
Forced : No

Text #1
ID : 5
Format : UTF-8
Codec ID : S_TEXT/UTF8
Codec ID/Info : UTF-8 Plain Text
Duration : 1 h 21 min
Bit rate : 55 b/s
Count of elements : 1296
Stream size : 33.4 KiB (0%)
Language : English
Default : No
Forced : No

Text #2
ID : 6
Format : UTF-8
Codec ID : S_TEXT/UTF8
Codec ID/Info : UTF-8 Plain Text
Duration : 1 h 24 min
Bit rate : 59 b/s
Count of elements : 1473
Stream size : 36.8 KiB (0%)
Title : SDH
Language : English
Default : No
Forced : No

Menu
00:00:00.000 : en:00:00:00.000
00:01:17.358 : en:00:01:17.358
00:24:36.038 : en:00:24:36.038
00:41:13.880 : en:00:41:13.880
00:57:34.679 : en:00:57:34.679
01:11:37.158 : en:01:11:37.158
01:23:38.198 : en:01:23:38.198
Скріншоти



Джерело: &
Подяки за українські доріжки: 1) ratbol, bambulla - запис з ТБ, voin747 - синхронізація; 2) Konfucius
Особиста оцінка: 0 - не дивився
Десяте королівство (Серії 1-5) / The 10th Kingdom (Episodes 1-5) (2000) 1080p 2хUkr/Eng | Sub Eng




Срібний реліз (на рейтинг впливає 50% завантаженого)
 Трекер:    Зареєстрований   

Завантажити / скачати серіал українською



відео для новачків



 Зареєстрований:   2018-07-14 22:15
 Розмір:   43.45 GB 
 Оцінка серіалу:   9.5/10 (Голосів: 6)
   
Lil_Sid 
Новенький


З нами з: 30.08.09
Востаннє: 21.09.18
Повідомлень: 2

2018-07-14 10:51  
Клас! Один з найулюбленіших серіалів мого дитинства. Дякую!
bot 
робот


З нами з: 30.09.07
Востаннє: 26.05.05
Повідомлень: 19817

2018-07-14 22:14  
Тему перенесено з Анонси релізів до форуму Серіали в HD


staf777

Ваш часовий пояс: GMT + 2 Години

Нова тема   Відповісти