Цоці / Tsotsi (2005) Remux 1080p Ukr/Afr | Sub Ukr/Eng

Нові коментарі

Нова тема   Відповісти
Автор Повідомлення
Anonymous 







2018-07-13 21:33  
Цоці / Tsotsi (2005) Remux 1080p Ukr/Afr | Sub Ukr/Eng

Цоці / Tsotsi (2005) Remux 1080p Ukr/Afr | Sub Ukr/Eng
Оригінальна обкладинка:



Жанр: драма, кримінальний
Країна: Велика Британія, ПАР



Оскар за найкращий іншомовний фільм


Кіностудія / кінокомпанія: Industrial Development Corporation of South Africa, Moviworld, The National Film and Video Foundation of SA, The UK Film & TV Production Company PLC, Tsotsi Films
Режисер: Гевін Гуд / Gavin Hood
Актори: Преслі Чвенеяге / Presley Chweneyagae, Террі Фето / Terry Pheto, Каннет Нкосі / Kenneth Nkosi, Зензо Нгкобе / Zenzo Ngqobe, Зоула / Zola, Джері Мофокенг / Jerry Mofokeng, Йен Робертс / Ian Roberts та інші

Сюжет:
Соуето - бідне передмістя Йоганнесбурга, єдина мета мешканців якого - вижити за всяку ціну. Цоці - юний безжальний ватажок вуличної банди. Погнавши автомобіль після п'яної вечірки, він знаходить себе наодинці з немовлям, що випадково опинилося на задньому сидінні. З того часу у нього починається внутрішня боротьба між жорстокістю і любов'ю...


Рейтинг MPAA: R - особам до 17 років обов'язкова присутність батьків або дорослого опікуна
Вікова категорія: 16+


Тривалість: 01:34:22
Якість: Remux 1080p
Відео:
кодек:
розмір кадру: 1920 x 1080
бітрейт: 19,8 Мб/с

Аудіо # 1:
мова: українська
переклад: двоголосий закадровий | Автор-Студія на замовлення "Арт-хаус Трафік"
кодек: 5.1
бітрейт: 384 кб/с

Аудіо # 2:
мова: aфрикаанс, зулу
переклад: оригінал
кодек: -HD MA 5.1
бітрейт: 3840 кб/с

Субтитри # 1:
мова: українська
тип: пререндерні
формат: pgs

Субтитри # 2:
мова: англійська
тип: пререндерні
формат: pgs

Збережено оригінальні розділи, як на Blu-ray
Info
Код:
Complete name               : Tsotsi (2005) [Ukr,Afr sub.Ukr,Eng] Remux 1080p [Hurtom].
Format                      :
Format version              : Version 4 / Version 2
File size                   : 15.9 GiB
Duration                    : 1 h 34 min
Overall bit rate mode       : Variable
Overall bit rate            : 24.0 Mb/s
Movie name                  : Цоці / Tsotsi (2005) [Ukr,Afr sub.Ukr,Eng] Remux 1080p [Hurtom]
Released date               : 2005
Encoded date                : UTC 2018-07-13 18:44:07
Writing application         : v25.0.0 ('Prog Noir') 64-bit
Writing library             : libebml v1.3.6 + v1.4.9
Cover                       : Yes
Comment                     : http://www.imdb.com/title/tt0468565/
Attachments                 : cover.jpg
DIRECTOR                    : Гевін Гуд / Gavin Hood
GENRE                       : драма, кримінальний
SYNOPSIS                    : Соуето - бідне передмістя Йоханнесбурга, єдина мета мешканців якого - вижити за всяку ціну. Цоці - юний безжальний ватажок вуличної банди. Погнавши автомобіль після п'яної вечірки, він знаходить себе наодинці з немовлям, що випадково опинилося на задньому сидінні. З того часу у нього починається внутрішня боротьба між жорстокістю і любов'ю...
Url                         : https://toloka.to/t93369

Video
ID                          : 1
Format                      : AVC
Format/Info                 : Advanced Video Codec
Format profile              : [email protected]
Format settings             : CABAC / 4 Ref Frames
Format settings, CABAC      : Yes
Format settings, ReFrames   : 4 frames
Codec ID                    : V_MPEG4/ISO/AVC
Duration                    : 1 h 34 min
Bit rate mode               : Variable
Bit rate                    : 19.8 Mb/s
Maximum bit rate            : 35.0 Mb/s
Width                       : 1 920 pixels
Height                      : 1 080 pixels
Display aspect ratio        : 16:9
Frame rate mode             : Constant
Frame rate                  : 23.976 (24000/1001) FPS
Standard                    : NTSC
Color space                 : YUV
Chroma subsampling          : 4:2:0
Bit depth                   : 8 bits
Scan type                   : Progressive
Bits/(Pixel*Frame)          : 0.398
Stream size                 : 13.0 GiB (82%)
Title                       : Цоці / Tsotsi (2005) Remux 1080p [Bluebird-HD]
Language                    : English
Default                     : Yes
Forced                      : No
Color range                 : Limited
Color primaries             : BT.709
Transfer characteristics    : BT.709
Matrix coefficients         : BT.709

Audio #1
ID                          : 2
Format                      : AC-3
Format/Info                 : Audio Coding 3
Codec ID                    : A_AC3
Duration                    : 1 h 34 min
Bit rate mode               : Constant
Bit rate                    : 384 kb/s
Channel(s)                  : 6 channels
Channel positions           : Front: L C R, Side: L R, LFE
Sampling rate               : 48.0 kHz
Frame rate                  : 31.250 FPS (1536 SPF)
Bit depth                   : 16 bits
Compression mode            : Lossy
Stream size                 : 259 MiB (2%)
Title                       : DVO [Avtor-studiya, Arthouse Traffic], 5.1 384 Kbps
Language                    : Ukrainian
Service kind                : Complete Main
Default                     : Yes
Forced                      : Yes

Audio #2
ID                          : 3
Format                      :
Format/Info                 : Digital Theater Systems
Format profile              : MA / Core
Codec ID                    : A_DTS
Duration                    : 1 h 34 min
Bit rate mode               : Variable / Constant
Bit rate                    : 3 840 kb/s / 1 509 kb/s
Channel(s)                  : 6 channels
Channel positions           : Front: L C R, Side: L R, LFE
Sampling rate               : 48.0 kHz
Frame rate                  : 93.750 FPS (512 SPF)
Bit depth                   : 24 bits
Compression mode            : Lossless / Lossy
Stream size                 : 2.57 GiB (16%)
Title                       : Original, -HD MA 5.1 3840 Kbps
Language                    : Afrikaans
Default                     : No
Forced                      : No

Text #1
ID                          : 4
Format                      : PGS
Muxing mode                 : zlib
Codec ID                    : S_HDMV/PGS
Codec ID/Info               : Picture based subtitle format used on BDs/HD-DVDs
Duration                    : 1 h 27 min
Bit rate                    : 10.4 kb/s
Count of elements           : 1060
Stream size                 : 6.52 MiB (0%)
Title                       : Ukr full [DVD R5]
Language                    : Ukrainian
Default                     : No
Forced                      : No

Text #2
ID                          : 5
Format                      : PGS
Muxing mode                 : zlib
Codec ID                    : S_HDMV/PGS
Codec ID/Info               : Picture based subtitle format used on BDs/HD-DVDs
Duration                    : 1 h 27 min
Bit rate                    : 16.8 kb/s
Count of elements           : 1126
Stream size                 : 10.5 MiB (0%)
Title                       : Eng full
Language                    : English
Default                     : No
Forced                      : No

Menu
00:00:00.000                : en:Chapter 1
00:08:18.497                : en:Chapter 2
00:16:19.979                : en:Chapter 3
00:24:04.442                : en:Chapter 4
00:32:19.938                : en:Chapter 5
00:40:35.431                : en:Chapter 6
00:48:45.922                : en:Chapter 7
00:56:38.393                : en:Chapter 8
01:04:15.851                : en:Chapter 9
01:12:07.323                : en:Chapter 10
01:20:05.801                : en:Chapter 11
01:28:05.279                : en:Chapter 12
01:34:21.654                : en:Chapter 13





Джерело: &
Подяка п.Romario_O за українську доріжку і субтитри та п.thefir'у за постер.


Золотий реліз (завантажене не впливає на рейтинг)
 Трекер:    Зареєстрований   

Завантажити / скачати фільм українською



відео для новачків



 Зареєстрований:   2018-07-13 22:10
 Розмір:   15.86 GB 
 Оцінка фільму:   7/10 (Голосів: 3)
   
Інші релізи
   Цоці / Tsotsi (2005) AVC Ukr/Afr | Sub Ukr/Eng igor911  14 / 0   1.71 GB   2018-07-17 20:44 
   Цоці / Tsotsi (2005) 720p Ukr/Afr | Sub Ukr/Eng igor911  6 / 0   4.06 GB   2018-07-14 00:43 
   Цоці / Tsotsi (2005) Ukr/Afr | Sub Ukr Romario_O  5 / 0   1.46 GB   2010-02-25 19:16 
Ваш часовий пояс: GMT + 2 Години

Нова тема   Відповісти