Імла / The Mist (2007) AVC 2xUkr/Eng | Sub Eng

Нові коментарі

Нова тема   Відповісти
Автор Повідомлення
staf777 
Попереджень: 1
Попереджень: 1 


З нами з: 16.11.16
Востаннє: 20.07.18
Повідомлень: 1262

2018-07-13 17:40  
Імла / The Mist (2007) AVC 2xUkr/Eng | Sub Eng

Імла / The Mist (2007) AVC 2xUkr/Eng | Sub Eng


Жанр: трилер, жахи, фантастика
Країна: США



Кінокомпанія: Darkwoods Productions, Dimension Films
Режисер: Френк Дарабонт
Актори: Томас Джейн, Марша Гей Харден, Вільям Седлер, Натан Гембл, Алекса Давалос, Лорі Холден, Кріс Оуен, Андре Брогер, Тобі Джонс, Джеффрі ДеМанн, Бак Тейлор, Френсіс Стернхейген, Сем Вітуер

Сюжет:
Після жахливого буревію маленьке містечко огортає імла. У цій імлі копирсаються загадкові істоти, що пожирають людей. Декілька десятків городян сховалися від ворожих істот за стінами супермаркету. І тут з’ясовується, що смертельна загроза не об’єднала тих, що врятувалися, але провела між ними лінію жорсткого розділу: одні ладні віддати своїх сусідів ворогові, приносячи їх в жертву, інші – чинити опір до кінця.


Тривалість: 02:06:00
Якість: AVC
Відео:
кодек:
розмір кадру: 1024x552
бітрейт: 3319 кб/с

Аудіо # 1:
мова: українська
переклад: багатоголосий закадровий
кодек: 2.0
бітрейт: 192 кб/с

Аудіо # 2: &
мова: українська
переклад: багатоголосий закадровий
кодек: 2.0
бітрейт: 192 кб/с

Аудіо # 3:
мова: англійська
переклад: оригінал
кодек: 5.1
бітрейт: 448 кб/с

Субтитри:
мова: англійська
тип: програмні (м'які)
формат: *.srt
Info
General
Unique ID : 269540492806426742346065417476132392752 (0xCAC79C52624905B4A0CD3177EDE14F30)
Complete name : H:\» Українське озвучення » Фільми\Фантастика\The Mist (2007) AVC [2xUKR_ENG] [Hurtom].
Format :
Format version : Version 4 / Version 2
File size : 3.65 GiB
Duration : 2 h 5 min
Overall bit rate : 4 142 kb/s
Movie name : The Mist (2007) AVC [2xUKR_ENG] [Hurtom]
Encoded date : UTC 2018-07-13 17:03:37
Writing application : v24.0.0 ('Beyond The Pale') 64-bit
Writing library : libebml v1.3.6 + v1.4.9
Cover : Yes
Attachments : cover.jpg

Video
ID : 1
Format : AVC
Format/Info : Advanced Video Codec
Format profile : [email protected]
Format settings : CABAC / 8 Ref Frames
Format settings, CABAC : Yes
Format settings, ReFrames : 8 frames
Codec ID : V_MPEG4/ISO/AVC
Duration : 2 h 5 min
Bit rate : 3 319 kb/s
Width : 1 024 pixels
Height : 552 pixels
Display aspect ratio : 1.85:1
Frame rate mode : Constant
Frame rate : 23.976 (24000/1001) FPS
Color space : YUV
Chroma subsampling : 4:2:0
Bit depth : 8 bits
Scan type : Progressive
Bits/(Pixel*Frame) : 0.245
Stream size : 2.91 GiB (80%)
Writing library : core 125 r2208 d9d2288
Encoding settings : cabac=1 / ref=8 / deblock=1:-3:-3 / analyse=0x3:0x133 / me=umh / subme=11 / psy=1 / psy_rd=1.00:0.20 / mixed_ref=1 / me_range=48 / chroma_me=1 / trellis=2 / 8x8dct=1 / cqm=0 / deadzone=21,11 / fast_pskip=0 / chroma_qp_offset=-3 / threads=3 / lookahead_threads=1 / sliced_threads=0 / nr=0 / decimate=0 / interlaced=0 / bluray_compat=0 / constrained_intra=0 / bframes=8 / b_pyramid=2 / b_adapt=2 / b_bias=0 / direct=3 / weightb=1 / open_gop=0 / weightp=2 / keyint=240 / keyint_min=23 / scenecut=40 / intra_refresh=0 / rc=2pass / mbtree=0 / bitrate=3319 / ratetol=1.0 / qcomp=0.60 / qpmin=0 / qpmax=69 / qpstep=4 / cplxblur=20.0 / qblur=0.5 / ip_ratio=1.40 / pb_ratio=1.30 / aq=1:1.00
Language : English
Default : Yes
Forced : No

Audio #1
ID : 2
Format : AC-3
Format/Info : Audio Coding 3
Codec ID : A_AC3
Duration : 2 h 5 min
Bit rate mode : Constant
Bit rate : 192 kb/s
Channel(s) : 2 channels
Channel positions : Front: L R
Sampling rate : 48.0 kHz
Frame rate : 31.250 FPS (1536 SPF)
Bit depth : 16 bits
Compression mode : Lossy
Stream size : 173 MiB (5%)
Title : [UA-MVO-Україна]
Language : Ukrainian
Service kind : Complete Main
Default : Yes
Forced : Yes

Audio #2
ID : 3
Format : AC-3
Format/Info : Audio Coding 3
Codec ID : A_AC3
Duration : 2 h 5 min
Bit rate mode : Constant
Bit rate : 192 kb/s
Channel(s) : 2 channels
Channel positions : Front: L R
Sampling rate : 48.0 kHz
Frame rate : 31.250 FPS (1536 SPF)
Bit depth : 16 bits
Compression mode : Lossy
Stream size : 173 MiB (5%)
Title : [UA-MVO-1+1]
Language : Ukrainian
Service kind : Complete Main
Default : No
Forced : No

Audio #3
ID : 4
Format : AC-3
Format/Info : Audio Coding 3
Codec ID : A_AC3
Duration : 2 h 5 min
Bit rate mode : Constant
Bit rate : 448 kb/s
Channel(s) : 6 channels
Channel positions : Front: L C R, Side: L R, LFE
Sampling rate : 48.0 kHz
Frame rate : 31.250 FPS (1536 SPF)
Bit depth : 16 bits
Compression mode : Lossy
Stream size : 404 MiB (11%)
Language : English
Service kind : Complete Main
Default : No
Forced : No

Text
ID : 5
Format : UTF-8
Codec ID : S_TEXT/UTF8
Codec ID/Info : UTF-8 Plain Text
Duration : 1 h 54 min
Bit rate : 56 b/s
Count of elements : 1750
Stream size : 47.6 KiB (0%)
Language : English
Default : No
Forced : No
Скріншоти




Зведення звуку: Romario_O
Джерело:


 Трекер:    Зареєстрований   

Завантажити / скачати фільм українською



відео для новачків



 Зареєстрований:   2018-07-13 20:18
 Розмір:   3.65 GB 
 Оцінка фільму:   10/10 (Голосів: 13)
   
Інші релізи
   Імла / The Mist (2007) Remux 1080p 2xUkr/Eng | Sub Eng IronBee  4 / 2   20.6 GB   2018-07-15 23:03 
   Імла / The Mist (2007) 1080p 2xUkr/Eng | Sub Eng staf777  3 / 0   13.54 GB   2018-07-13 17:53 
   Імла / The Mist (2007) 2xUkr taraskill1  10 / 0   2.19 GB   2016-06-12 12:55 
   Імла / The Mist (2007) 720p Ukr/Eng | Sub Ukr/Eng SuperContik  10 / 0   6.89 GB   2011-02-14 00:46 
bot 
робот


З нами з: 30.09.07
Востаннє: 26.05.05
Повідомлень: 19338

2018-07-13 20:18  
Тему перенесено з Анонси релізів до форуму Фільми


staf777

def-17.2 
Новенький


З нами з: 20.02.15
Востаннє: 19.07.18
Повідомлень: 6

2018-07-15 21:06  
Кіно файне тут нічого додать.
volodymyr_sav 
VIP


З нами з: 07.10.13
Востаннє: 20.07.18
Повідомлень: 1398

2018-07-17 08:24  
Найкрутіше з того, що я бачив. Кінг бездоганний, значна частина людства невиправно тупе стадо. Кінець фільму шикарний - єдиний фільм, який я дивився 1 раз років 5 тому і пам'ятаю практично все. 10/10 - рекомендую, особливо перед виборами, щоб зрозуміли, як вибирають шоколадного жида
DEATHDOOM 
Новенький


З нами з: 24.02.12
Востаннє: 17.07.18
Повідомлень: 14

2018-07-17 20:15  
Давно знав про цей фільм і от нарешті його переглянув. Досить таки цікаве кіно. Стівен Кінг як завжди на висоті.
Ваш часовий пояс: GMT + 2 Години

Нова тема   Відповісти