Світ примар / Ghost World (2001) 720p Ukr/Eng | Sub Eng

Нові коментарі

Нова тема   Відповісти
Останній раз роздавалося treble112 (2019-07-13)
Автор Повідомлення
Anonymous 







2018-07-13 12:33  
Світ примар / Ghost World (2001) 720p Ukr/Eng | Sub Eng

Світ примар / Ghost World (2001) 720p Ukr/Eng | Sub Eng
Український постер:



Жанр: комедія, драма
Країна: США



Кінокомпанія: Capitol Films / Granada Film Productions and United Artists
Режисер: Тері Звігоф / Terry Zwigoff
Актори: Тора Бірч / Thora Birch, Скарлетт Йоганссон / Scarlett Johansson, Стів Бушемі / Steve Buscemi, Бред Ренфро / Brad Renfro, Іллеана Дуглас / Illeana Douglas, Боб Балабан / Bob Balaban, Стейсі Тревіс / Stacey Travis, Дейв Шерідан / Dave Sheridan, Дебра Азар / Debra Azar, Браян Джорж / Brian George

Сюжет:
У той час як всі виховані випускники середньої школи вступили до коледжу, наші героїні Енід і Ребека вирішили, що вчитися далі - це страшенна нудьга і даремна трата часу. Набагато краще відпочити в своє задоволення, подивитися, що до чого. Ну і, звичайно, як слід "перемити кісточки" всім недосконалим представникам роду людського. А їх, на щастя, всюди превелика безліч!

Але одного дня "кулестійке" серце нашої в'їдливої і саркастичної Енід здригнулося. Це сталося після зустрічі з сором'язливим та нерішучим холостяком-невдахою, що торгує старими вініловими платівками. Дівчину починає нез'ясовним чином тягнути до цієї самотньої і сором'язливої ​​людини ...


Рейтинг MPAA: R - особам до 17 років обов'язкова присутність батьків або дорослого опікуна
Вікова категорія: 15+

Тривалість: 01:51:25
Якість: 720p [DON]
Відео:
кодек:
розмір кадру: 1280 х 694
бітрейт: 5100 кб/с

Аудіо # 1:
мова: українська
переклад: двоголосий закадровий
чоловічі ролі озвучив: Дмитро Завадський
кодек: 2.0
бітрейт: 192 кб/с

Аудіо # 2:
мова: англійська
переклад: оригінал
кодек: 5.1
бітрейт: 640 кб/с

Субтитри:
мова: англійська
тип: програмні (м'які)
формат: *.srt

Збережено оригінальні розділи, як на Blu-ray
Info
Код:
Complete name               : Ghost World (2001) [Ukr,Eng sub.Eng] 720p [Hurtom].
Format                      :
Format version              : Version 4 / Version 2
File size                   : 4.62 GiB
Duration                    : 1 h 51 min
Overall bit rate            : 5 933 kb/s
Movie name                  : Світ примар / Ghost World (2001) [Ukr,Eng sub.Eng] 720p [Hurtom]
Encoded date                : UTC 2018-07-13 09:18:51
Writing application         : v25.0.0 ('Prog Noir') 64-bit
Writing library             : libebml v1.3.6 + v1.4.9
Cover                       : Yes
Attachments                 : cover.jpg

Video
ID                          : 1
Format                      : AVC
Format/Info                 : Advanced Video Codec
Format profile              : [email protected]
Format settings             : CABAC / 9 Ref Frames
Format settings, CABAC      : Yes
Format settings, ReFrames   : 9 frames
Codec ID                    : V_MPEG4/ISO/AVC
Duration                    : 1 h 51 min
Bit rate                    : 5 100 kb/s
Width                       : 1 280 pixels
Height                      : 694 pixels
Display aspect ratio        : 1.85:1
Frame rate mode             : Constant
Frame rate                  : 23.976 FPS
Color space                 : YUV
Chroma subsampling          : 4:2:0
Bit depth                   : 8 bits
Scan type                   : Progressive
Bits/(Pixel*Frame)          : 0.239
Stream size                 : 3.97 GiB (86%)
Title                       : Світ примар / Ghost World (2001) 720p [DON]
Writing library             : core 142 r2431kMod ac76440
Encoding settings           : cabac=1 / ref=9 / deblock=1:-3:-3 / analyse=0x3:0x133 / me=tesa / subme=10 / psy=1 / fade_compensate=0.00 / psy_rd=1.05:0.15 / mixed_ref=1 / me_range=32 / chroma_me=1 / trellis=2 / 8x8dct=1 / cqm=0 / deadzone=21,11 / fast_pskip=0 / chroma_qp_offset=-3 / threads=12 / lookahead_threads=2 / sliced_threads=0 / nr=0 / decimate=0 / interlaced=0 / bluray_compat=0 / constrained_intra=0 / fgo=0 / bframes=9 / b_pyramid=2 / b_adapt=2 / b_bias=0 / direct=1 / weightb=1 / open_gop=0 / weightp=2 / keyint=250 / keyint_min=23 / scenecut=40 / intra_refresh=0 / rc_lookahead=40 / rc=2pass / mbtree=0 / bitrate=5100 / ratetol=1.0 / qcomp=0.75 / qpmin=0 / qpmax=50 / qpstep=4 / cplxblur=20.0 / qblur=0.5 / vbv_maxrate=50000 / vbv_bufsize=50000 / nal_hrd=none / filler=0 / ip_ratio=1.40 / pb_ratio=1.30 / aq=1:0.90
Language                    : English
Default                     : Yes
Forced                      : No

Audio #1
ID                          : 2
Format                      : AC-3
Format/Info                 : Audio Coding 3
Codec ID                    : A_AC3
Duration                    : 1 h 51 min
Bit rate mode               : Constant
Bit rate                    : 192 kb/s
Channel(s)                  : 2 channels
Channel positions           : Front: L R
Sampling rate               : 48.0 kHz
Frame rate                  : 31.250 FPS (1536 SPF)
Bit depth                   : 16 bits
Compression mode            : Lossy
Stream size                 : 153 MiB (3%)
Title                       : DVO [Novyj] 2.0 192 Kbps
Language                    : Ukrainian
Service kind                : Complete Main
Default                     : Yes
Forced                      : Yes

Audio #2
ID                          : 3
Format                      : AC-3
Format/Info                 : Audio Coding 3
Codec ID                    : A_AC3
Duration                    : 1 h 51 min
Bit rate mode               : Constant
Bit rate                    : 640 kb/s
Channel(s)                  : 6 channels
Channel positions           : Front: L C R, Side: L R, LFE
Sampling rate               : 48.0 kHz
Frame rate                  : 31.250 FPS (1536 SPF)
Bit depth                   : 16 bits
Compression mode            : Lossy
Stream size                 : 510 MiB (11%)
Title                       : Original, 5.1 640 Kbps
Language                    : English
Service kind                : Complete Main
Default                     : No
Forced                      : No

Text
ID                          : 4
Format                      : UTF-8
Codec ID                    : S_TEXT/UTF8
Codec ID/Info               : UTF-8 Plain Text
Duration                    : 1 h 48 min
Bit rate                    : 64 b/s
Count of elements           : 1545
Stream size                 : 51.5 KiB (0%)
Language                    : English
Default                     : No
Forced                      : No

Menu
00:00:00.000                : en:00:00:00.000
00:07:42.462                : en:00:07:42.462
00:16:43.002                : en:00:16:43.002
00:29:13.752                : en:00:29:13.752
00:37:44.262                : en:00:37:44.262
00:47:13.831                : en:00:47:13.831
00:58:28.505                : en:00:58:28.505
01:07:13.029                : en:01:07:13.029
01:18:17.693                : en:01:18:17.693
01:24:39.074                : en:01:24:39.074
01:33:47.622                : en:01:33:47.622
01:42:43.157                : en:01:42:43.157




Джерело: &
Подяки: tarick за запис звуку, karvai0 за українізацію постера, yaroslaigor (HQClub) - синхронізація під блурей.


Срібний реліз (на рейтинг впливає 50% завантаженого)
 Трекер:    Зареєстрований   

Завантажити / скачати фільм українською



відео для новачків



 Зареєстрований:   2018-07-13 12:33
 Розмір:   4.62 GB 
 Оцінка фільму:   8.2/10 (Голосів: 5)
   
Інші релізи
   Світ примар / Ghost World (2001) 1080p [Remastered] Ukr/Eng | Sub Eng IronBee  0 / 0   12.17 GB   2018-07-12 18:35 
   Світ примар / Ghost World (2001) Remux 1080p Ukr/Eng | Sub Eng IronBee  0 / 1   30.05 GB   2018-07-12 18:29 
   Світ примар / Ghost World (2001) leicheman  5 / 0   1.63 GB   2018-05-27 12:45 
Ваш часовий пояс: GMT + 2 Години

Нова тема   Відповісти