Дитяча кімната / The Baby's Room / Películas para no dormir: La habitación del niño (2006) AVC Ukr/Spa | Sub Eng

Нові коментарі

Нова тема   Відповісти
Автор Повідомлення
staf777 
Попереджень: 1
Попереджень: 1 


З нами з: 16.11.16
Востаннє: 15.11.18
Повідомлень: 1744

2018-07-12 08:15  
Дитяча кімната / The Baby's Room / Películas para no dormir: La habitación del niño (2006) AVC Ukr/Spa | Sub Eng

Дитяча кімната / The Baby's Room / Películas para no dormir: La habitación del niño (2006) AVC Ukr/Spa | Sub Eng


Жанр: жахи, трилер, детектив
Країна: Іспанія



Кінокомпанія: Estudios Picasso, Filmax, Telecinco, Castelao Producciones
Режисер: Алекс де ла Іґлесіа / Alex de la Iglesia
Актори: Хав'єр Гутьєррез / Javier Gutiérrez, Леонор Вотлінґ / Leonor Watling, Марія Аскеріно / María Asquerino, Санчо Грасія / Sancho Gracia та інші.

Сюжет:
Подружжя з маленькою дитиною переїжджає до нового будинку. Життя йде спокійно, але згодом молодим батькам здається, що хтось стежить за ними та їхнім будинком, маючи намір викрасти малюка. Ця думка доводить їх до стресу. Під загрозою їхня робота і сімейне щастя. Якщо не вжити рішучих заходів, може статися щось непоправне...

*Стрічка належить до іспанського телевізійного циклу "Фільми, що не дадуть вам заснути / Películas para no dormir", який складається з шести різних картин, котрі зафільмовані різними режисерами.


Тривалість: 01:19:49
Якість: AVC
Відео:
кодек:
розмір кадру: 1024x560
бітрейт: 3136 кб/с

Аудіо # 1:
мова: українська
переклад: двоголосий закадровий
кодек: 2.0
бітрейт: 192 кб/с

Аудіо # 2:
мова: іспанська
переклад: оригінал
кодек: 5.1
бітрейт: 448 кб/с

Джерело озвучення:


Субтитри:
мова: англійська
тип: програмні (м'які)
формат: *.srt
Info
General
Unique ID : 18622315545393803173452831686497640365 (0xE02870B2CDA9DA23D170E35482F9FAD)
Complete name : H:\» Українське озвучення » Фільми\Жахи\Peliculas para no dormir. La habitacion del nino (2006) AVC [Ukr,Spa][Hurtom].
Format :
Format version : Version 4 / Version 2
File size : 2.07 GiB
Duration : 1 h 19 min
Overall bit rate : 3 713 kb/s
Movie name : Peliculas para no dormir. La habitacion del nino (2006) AVC [Ukr,Spa][Hurtom]
Encoded date : UTC 2018-07-12 06:00:28
Writing application : v24.0.0 ('Beyond The Pale') 64-bit
Writing library : libebml v1.3.6 + v1.4.9
Cover : Yes
Attachments : cover.jpg

Video
ID : 1
Format : AVC
Format/Info : Advanced Video Codec
Format profile : [email protected]
Format settings : CABAC / 12 Ref Frames
Format settings, CABAC : Yes
Format settings, ReFrames : 12 frames
Codec ID : V_MPEG4/ISO/AVC
Duration : 1 h 19 min
Bit rate : 3 136 kb/s
Width : 1 024 pixels
Height : 560 pixels
Display aspect ratio : 1.85:1
Frame rate mode : Constant
Frame rate : 24.000 FPS
Color space : YUV
Chroma subsampling : 4:2:0
Bit depth : 8 bits
Scan type : Progressive
Bits/(Pixel*Frame) : 0.228
Stream size : 1.75 GiB (84%)
Title : The.Babys.Room.2006..AVC
Writing library : core 152 r2851 ba24899
Encoding settings : cabac=1 / ref=12 / deblock=1:-3:-3 / analyse=0x3:0x133 / me=umh / subme=10 / psy=1 / psy_rd=1.05:0.08 / mixed_ref=1 / me_range=32 / chroma_me=1 / trellis=2 / 8x8dct=1 / cqm=0 / deadzone=21,11 / fast_pskip=0 / chroma_qp_offset=-3 / threads=3 / lookahead_threads=1 / sliced_threads=0 / nr=0 / decimate=1 / interlaced=0 / bluray_compat=0 / constrained_intra=0 / bframes=12 / b_pyramid=2 / b_adapt=2 / b_bias=0 / direct=3 / weightb=1 / open_gop=0 / weightp=2 / keyint=240 / keyint_min=24 / scenecut=40 / intra_refresh=0 / rc_lookahead=40 / rc=2pass / mbtree=1 / bitrate=3136 / ratetol=1.0 / qcomp=0.60 / qpmin=10 / qpmax=51 / qpstep=4 / cplxblur=20.0 / qblur=0.5 / vbv_maxrate=50000 / vbv_bufsize=62500 / nal_hrd=none / filler=0 / ip_ratio=1.40 / aq=1:1.00
Default : Yes
Forced : No

Audio #1
ID : 2
Format : AC-3
Format/Info : Audio Coding 3
Codec ID : A_AC3
Duration : 1 h 19 min
Bit rate mode : Constant
Bit rate : 192 kb/s
Channel(s) : 2 channels
Channel positions : Front: L R
Sampling rate : 48.0 kHz
Frame rate : 31.250 FPS (1536 SPF)
Bit depth : 16 bits
Compression mode : Lossy
Stream size : 110 MiB (5%)
Title : 1+1
Language : Ukrainian
Service kind : Complete Main
Default : Yes
Forced : Yes

Audio #2
ID : 3
Format : AC-3
Format/Info : Audio Coding 3
Codec ID : A_AC3
Duration : 1 h 19 min
Bit rate mode : Constant
Bit rate : 384 kb/s
Channel(s) : 6 channels
Channel positions : Front: L C R, Side: L R, LFE
Sampling rate : 48.0 kHz
Frame rate : 31.250 FPS (1536 SPF)
Bit depth : 16 bits
Compression mode : Lossy
Stream size : 219 MiB (10%)
Title : Original
Language : Spanish
Service kind : Complete Main
Default : No
Forced : No

Text
ID : 4
Format : UTF-8
Codec ID : S_TEXT/UTF8
Codec ID/Info : UTF-8 Plain Text
Duration : 1 h 16 min
Bit rate : 52 b/s
Count of elements : 735
Stream size : 29.6 KiB (0%)
Language : English
Default : No
Forced : No

Menu
00:00:00.000 : en:
00:04:18.041 : en:
00:07:19.625 : en:
00:12:26.125 : en:
00:15:51.291 : en:
00:20:29.583 : en:
00:24:42.750 : en:
00:31:59.416 : en:
00:36:07.125 : en:
00:41:27.458 : en:
00:48:29.666 : en:
00:55:05.083 : en:
01:00:47.708 : en:
01:06:22.500 : en:
01:10:05.041 : en:
01:16:44.082 : en:
01:19:49.332 : en:
Скріншоти



Українська доріжка - robotron005 - запис з ТБ та синхронізація; українізований постер - thefir
Джерело: &
Особиста оцінка: 8 - мені сподобалося



 Трекер:    Зареєстрований   

Завантажити / скачати фільм українською



відео для новачків



 Зареєстрований:   2018-07-12 08:15
 Розмір:   2.07 GB 
 Оцінка фільму:   8/10 (Голосів: 7)
   
staf777 
Попереджень: 1
Попереджень: 1 


З нами з: 16.11.16
Востаннє: 15.11.18
Повідомлень: 1744

2018-07-12 08:53  
Стрічка належить до іспанського телевізійного циклу:
"Фільми, що не дадуть вам заснути (Películas para no dormir)"
який складається з шести різних картин, котрі зафільмовані різними режисерами.

Ваш часовий пояс: GMT + 2 Години

Нова тема   Відповісти