Ласкаво просимо, або сусідам вхід заборонено / Deck the Halls (2006) AVC 2xUkr/Eng | Sub Ukr/Eng

Нові коментарі

Нова тема   Відповісти
Автор Повідомлення
staf777 
Попереджень: 1
Попереджень: 1 


З нами з: 16.11.16
Востаннє: 16.12.18
Повідомлень: 1919

2018-07-11 20:43  
Ласкаво просимо, або сусідам вхід заборонено / Deck the Halls (2006) AVC 2xUkr/Eng | Sub Ukr/Eng

Ласкаво просимо, або сусідам вхід заборонено / Deck the Halls (2006) AVC 2xUkr/Eng | Sub Ukr/Eng


Жанр: комедія, сімейний
Країна: США



Кінокомпанія: Regency Enterprises, New Regency Pictures, Corduroy Films, All Lit Up Productions
Режисер: Джон Вайтселл / John Whitesell
Актори: Дені ДеВіто / Danny DeVito, Метью Бродерік / Matthew Broderick, Крістін Девіс / Kristin Davis, Крістін Ченоует / Kristin Chenoweth, Аліа Шоукат / Alia Shawkat, Ділан Блу / Dylan Blue, Келлі Алдрідже / Kelly Aldridge, Сабріна Алдрідже / Sabrina Aldridge, Джордж Ґарсія / Jorge Garcia, Фред Армісен / Fred Armisen, Джилліан Віґман / Gillian Vigman, Раян Девлін / Ryan Devlin, Шон О'Браян / Sean O'Bryan, СуЧінь Пак / SuChin Pak, Джекі Барроуз / Jackie Burroughs

Сюжет:
У маленькому північноамериканському містечку напередодні Різдва якраз оголошувати військовий стан: один з жителів вирішив прикрасити свій будинок ілюмінацією, яку було б можна бачити з космосу. Це не припало до душі селянам і особливо його найближчому сусідові.


Тривалість: 01:32:58
Якість: AVC (Deck.the.Halls.2006.1080p.BluRay.REMUX.AVC.-HD.MA.5.1-EPSiLON)
Відео:
кодек:
розмір кадру: 1024x556
бітрейт: 3318 кб/с

Аудіо # 1:
мова: українська
переклад: багатоголосий закадровий
кодек: 2.0
бітрейт: 192 кб/с

Аудіо # 2:
мова: українська
переклад: багатоголосий закадровий
кодек: 2.0
бітрейт: 192 кб/с

Аудіо # 3:
мова: англійська
переклад: оригінал
кодек: 5.1
бітрейт: 448 кб/с

Субтитри #1:
мова: українська
тип: програмні (м'які)
формат: *.srt

Субтитри # 2-3:
мова: англійська
тип: програмні (м'які)
формат: *.srt
Info
General
Unique ID : 278080511821075503638586245941916360147 (0xD1345BC478D0B0400EA1E91F89885DD3)
Complete name : D:\Майбутні релізи\ Deck the Halls (2006) AVC [2xUKR_ENG] [Hurtom].
Format :
Format version : Version 4 / Version 2
File size : 2.70 GiB
Duration : 1 h 32 min
Overall bit rate : 4 151 kb/s
Movie name : Deck the Halls (2006) AVC [2xUKR_ENG] [Hurtom]
Encoded date : UTC 2018-07-13 15:37:52
Writing application : v24.0.0 ('Beyond The Pale') 64-bit
Writing library : libebml v1.3.6 + v1.4.9
Cover : Yes
Attachments : cover.jpg

Video
ID : 1
Format : AVC
Format/Info : Advanced Video Codec
Format profile : [email protected]
Format settings : CABAC / 12 Ref Frames
Format settings, CABAC : Yes
Format settings, ReFrames : 12 frames
Codec ID : V_MPEG4/ISO/AVC
Duration : 1 h 32 min
Bit rate : 3 318 kb/s
Width : 1 024 pixels
Height : 556 pixels
Display aspect ratio : 1.85:1
Frame rate mode : Constant
Frame rate : 23.976 (24000/1001) FPS
Color space : YUV
Chroma subsampling : 4:2:0
Bit depth : 8 bits
Scan type : Progressive
Bits/(Pixel*Frame) : 0.243
Stream size : 2.15 GiB (80%)
Title : Deck.the.Halls.2006.AVC
Writing library : core 152 r2851 ba24899
Encoding settings : cabac=1 / ref=12 / deblock=1:-3:-3 / analyse=0x3:0x133 / me=umh / subme=10 / psy=1 / psy_rd=1.05:0.10 / mixed_ref=1 / me_range=32 / chroma_me=1 / trellis=2 / 8x8dct=1 / cqm=0 / deadzone=21,11 / fast_pskip=0 / chroma_qp_offset=-3 / threads=3 / lookahead_threads=1 / sliced_threads=0 / nr=0 / decimate=1 / interlaced=0 / bluray_compat=0 / constrained_intra=0 / bframes=10 / b_pyramid=2 / b_adapt=2 / b_bias=0 / direct=3 / weightb=1 / open_gop=0 / weightp=2 / keyint=240 / keyint_min=23 / scenecut=40 / intra_refresh=0 / rc_lookahead=40 / rc=2pass / mbtree=1 / bitrate=3318 / ratetol=1.0 / qcomp=0.60 / qpmin=10 / qpmax=51 / qpstep=4 / cplxblur=20.0 / qblur=0.5 / vbv_maxrate=50000 / vbv_bufsize=62500 / nal_hrd=none / filler=0 / ip_ratio=1.40 / aq=1:1.00
Default : Yes
Forced : No

Audio #1
ID : 2
Format : AC-3
Format/Info : Audio Coding 3
Codec ID : A_AC3
Duration : 1 h 32 min
Bit rate mode : Constant
Bit rate : 192 kb/s
Channel(s) : 2 channels
Channel positions : Front: L R
Sampling rate : 48.0 kHz
Frame rate : 31.250 FPS (1536 SPF)
Bit depth : 16 bits
Compression mode : Lossy
Stream size : 128 MiB (5%)
Title : [UA-MVO]
Language : Ukrainian
Service kind : Complete Main
Default : Yes
Forced : Yes

Audio #2
ID : 3
Format : AC-3
Format/Info : Audio Coding 3
Codec ID : A_AC3
Duration : 1 h 32 min
Bit rate mode : Constant
Bit rate : 192 kb/s
Channel(s) : 2 channels
Channel positions : Front: L R
Sampling rate : 48.0 kHz
Frame rate : 31.250 FPS (1536 SPF)
Bit depth : 16 bits
Compression mode : Lossy
Stream size : 128 MiB (5%)
Title : [UA-MVO]
Language : Ukrainian
Service kind : Complete Main
Default : No
Forced : No

Audio #3
ID : 4
Format : AC-3
Format/Info : Audio Coding 3
Codec ID : A_AC3
Duration : 1 h 32 min
Bit rate mode : Constant
Bit rate : 448 kb/s
Channel(s) : 6 channels
Channel positions : Front: L C R, Side: L R, LFE
Sampling rate : 48.0 kHz
Frame rate : 31.250 FPS (1536 SPF)
Bit depth : 16 bits
Compression mode : Lossy
Stream size : 298 MiB (11%)
Language : English
Service kind : Complete Main
Default : No
Forced : No

Text #1
ID : 5
Format : UTF-8
Codec ID : S_TEXT/UTF8
Codec ID/Info : UTF-8 Plain Text
Duration : 1 h 27 min
Bit rate : 107 b/s
Count of elements : 1078
Stream size : 69.2 KiB (0%)
Language : Ukrainian
Default : No
Forced : No

Text #2
ID : 6
Format : UTF-8
Codec ID : S_TEXT/UTF8
Codec ID/Info : UTF-8 Plain Text
Duration : 1 h 32 min
Bit rate : 73 b/s
Count of elements : 1602
Stream size : 49.5 KiB (0%)
Language : English
Default : No
Forced : No

Text #3
ID : 7
Format : UTF-8
Codec ID : S_TEXT/UTF8
Codec ID/Info : UTF-8 Plain Text
Duration : 1 h 32 min
Bit rate : 77 b/s
Count of elements : 1727
Stream size : 52.5 KiB (0%)
Title : SDH
Language : English
Default : No
Forced : No

Menu
00:00:00.000 : en:Chapter 1
00:03:32.254 : en:Chapter 2
00:07:26.696 : en:Chapter 3
00:11:39.616 : en:Chapter 4
00:16:58.517 : en:Chapter 5
00:20:17.174 : en:Chapter 6
00:25:20.352 : en:Chapter 7
00:31:07.407 : en:Chapter 8
00:37:40.383 : en:Chapter 9
00:41:15.890 : en:Chapter 10
00:48:14.517 : en:Chapter 11
00:54:48.452 : en:Chapter 12
00:58:26.461 : en:Chapter 13
01:02:09.142 : en:Chapter 14
01:04:20.607 : en:Chapter 15
01:08:11.921 : en:Chapter 16
01:12:03.694 : en:Chapter 17
01:17:01.784 : en:Chapter 18
01:22:21.186 : en:Chapter 19
01:27:51.266 : en:Chapter 20
Скріншоти




Запис з ТБ: andic, xslim, OlegCena
Синхронізація : karvai0
Постер: thefir
Джерело: &
Особиста оцінка: 0 - не дивився


 Трекер:    Зареєстрований   

Завантажити / скачати фільм українською



відео для новачків



 Зареєстрований:   2018-07-13 17:50
 Розмір:   2.7 GB 
 Оцінка фільму:   8.9/10 (Голосів: 8)
   
bot 
робот


З нами з: 30.09.07
Востаннє: 26.05.05
Повідомлень: 20348

2018-07-13 17:50  
Тему перенесено з Анонси релізів до форуму Фільми


staf777

Ваш часовий пояс: GMT + 2 Години

Нова тема   Відповісти