Ласкаво просимо, або сусідам вхід заборонено / Deck the Halls (2006) 1080p 2xUkr/Eng | Sub Ukr/Eng

Нові коментарі

Нова тема   Відповісти
Останній раз роздавалося staf777 (2018-11-17)
Автор Повідомлення
staf777 
Попереджень: 1
Попереджень: 1 


З нами з: 16.11.16
Востаннє: 17.11.18
Повідомлень: 1753

2018-07-11 20:40  
Ласкаво просимо, або сусідам вхід заборонено / Deck the Halls (2006) 1080p 2xUkr/Eng | Sub Ukr/Eng

Ласкаво просимо, або сусідам вхід заборонено / Deck the Halls (2006) 1080p 2xUkr/Eng | Sub Ukr/Eng


Жанр: комедія, сімейний
Країна: США



Кінокомпанія: Regency Enterprises, New Regency Pictures, Corduroy Films, All Lit Up Productions
Режисер: Джон Вайтселл / John Whitesell
Актори: Дені ДеВіто / Danny DeVito, Метью Бродерік / Matthew Broderick, Крістін Девіс / Kristin Davis, Крістін Ченоует / Kristin Chenoweth, Аліа Шоукат / Alia Shawkat, Ділан Блу / Dylan Blue, Келлі Алдрідже / Kelly Aldridge, Сабріна Алдрідже / Sabrina Aldridge, Джордж Ґарсія / Jorge Garcia, Фред Армісен / Fred Armisen, Джилліан Віґман / Gillian Vigman, Раян Девлін / Ryan Devlin, Шон О'Браян / Sean O'Bryan, СуЧінь Пак / SuChin Pak, Джекі Барроуз / Jackie Burroughs

Сюжет:
У маленькому північноамериканському містечку напередодні Різдва якраз оголошувати військовий стан: один з жителів вирішив прикрасити свій будинок ілюмінацією, яку було б можна бачити з космосу. Це не припало до душі селянам і особливо його найближчому сусідові.


Тривалість: 01:32:58
Якість: 1080p
Відео:
кодек:
розмір кадру: 1920x1040
бітрейт: 10.9 Mб/с

Аудіо # 1:
мова: українська
переклад: багатоголосий закадровий
кодек: 2.0
бітрейт: 192 кб/с

Аудіо # 2:
мова: українська
переклад: багатоголосий закадровий
кодек: 2.0
бітрейт: 192 кб/с

Аудіо # 3:
мова: англійська
переклад: оригінал
кодек: 5.1
бітрейт: 640 кб/с

Субтитри:
мова: українська
тип: програмні (м'які)
формат: *.srt

Субтитри:
мова: англійська
тип: програмні (м'які)
формат: *.srt
Info
General
Unique ID : 275835745039760692502827047041282494084 (0xCF84083863DA03C2512E5B4E8AC64E84)
Complete name : D:\Фільми в HD\Комедія\Deck the Halls (2006) 1080p [2xUKR_ENG] [Hurtom].
Format :
Format version : Version 4 / Version 2
File size : 7.66 GiB
Duration : 1 h 32 min
Overall bit rate : 11.8 Mb/s
Movie name : Deck the Halls (2006) 1080p [2xUKR_ENG] [Hurtom]
Encoded date : UTC 2018-07-13 12:13:46
Writing application : v24.0.0 ('Beyond The Pale') 64-bit
Writing library : libebml v1.3.6 + v1.4.9
Cover : Yes
Attachments : cover.jpg

Video
ID : 1
Format : AVC
Format/Info : Advanced Video Codec
Format profile : [email protected]
Format settings : CABAC / 4 Ref Frames
Format settings, CABAC : Yes
Format settings, ReFrames : 4 frames
Codec ID : V_MPEG4/ISO/AVC
Duration : 1 h 32 min
Bit rate : 10.9 Mb/s
Width : 1 920 pixels
Height : 1 040 pixels
Display aspect ratio : 1.85:1
Frame rate mode : Constant
Frame rate : 23.976 (24000/1001) FPS
Color space : YUV
Chroma subsampling : 4:2:0
Bit depth : 8 bits
Scan type : Progressive
Bits/(Pixel*Frame) : 0.227
Stream size : 6.99 GiB (91%)
Writing library : core 142 r2431 ac76440
Encoding settings : cabac=1 / ref=4 / deblock=1:-2:-1 / analyse=0x3:0x133 / me=umh / subme=11 / psy=1 / psy_rd=1.00:0.00 / mixed_ref=1 / me_range=32 / chroma_me=1 / trellis=2 / 8x8dct=1 / cqm=0 / deadzone=21,11 / fast_pskip=0 / chroma_qp_offset=-2 / threads=12 / lookahead_threads=1 / sliced_threads=0 / nr=0 / decimate=1 / interlaced=0 / bluray_compat=0 / constrained_intra=0 / bframes=6 / b_pyramid=2 / b_adapt=2 / b_bias=0 / direct=3 / weightb=1 / open_gop=0 / weightp=2 / keyint=240 / keyint_min=23 / scenecut=40 / intra_refresh=0 / rc=2pass / mbtree=0 / bitrate=10856 / ratetol=2.0 / qcomp=0.60 / qpmin=0 / qpmax=69 / qpstep=4 / cplxblur=20.0 / qblur=0.5 / ip_ratio=1.40 / pb_ratio=1.30 / aq=2:1.00
Language : English
Default : Yes
Forced : No

Audio #1
ID : 2
Format : AC-3
Format/Info : Audio Coding 3
Codec ID : A_AC3
Duration : 1 h 32 min
Bit rate mode : Constant
Bit rate : 192 kb/s
Channel(s) : 2 channels
Channel positions : Front: L R
Sampling rate : 48.0 kHz
Frame rate : 31.250 FPS (1536 SPF)
Bit depth : 16 bits
Compression mode : Lossy
Stream size : 128 MiB (2%)
Title : [UA-MVO]
Language : Ukrainian
Service kind : Complete Main
Default : Yes
Forced : Yes

Audio #2
ID : 3
Format : AC-3
Format/Info : Audio Coding 3
Codec ID : A_AC3
Duration : 1 h 32 min
Bit rate mode : Constant
Bit rate : 192 kb/s
Channel(s) : 2 channels
Channel positions : Front: L R
Sampling rate : 48.0 kHz
Frame rate : 31.250 FPS (1536 SPF)
Bit depth : 16 bits
Compression mode : Lossy
Stream size : 128 MiB (2%)
Title : [UA-MVO]
Language : Ukrainian
Service kind : Complete Main
Default : No
Forced : No

Audio #3
ID : 4
Format : AC-3
Format/Info : Audio Coding 3
Codec ID : A_AC3
Duration : 1 h 32 min
Bit rate mode : Constant
Bit rate : 640 kb/s
Channel(s) : 6 channels
Channel positions : Front: L C R, Side: L R, LFE
Sampling rate : 48.0 kHz
Frame rate : 31.250 FPS (1536 SPF)
Bit depth : 16 bits
Compression mode : Lossy
Stream size : 426 MiB (5%)
Title : Eng
Language : English
Service kind : Complete Main
Default : No
Forced : No

Text #1
ID : 5
Format : UTF-8
Codec ID : S_TEXT/UTF8
Codec ID/Info : UTF-8 Plain Text
Duration : 1 h 27 min
Bit rate : 107 b/s
Count of elements : 1078
Stream size : 69.2 KiB (0%)
Language : Ukrainian
Default : No
Forced : No

Text #2
ID : 6
Format : UTF-8
Codec ID : S_TEXT/UTF8
Codec ID/Info : UTF-8 Plain Text
Duration : 1 h 32 min
Bit rate : 77 b/s
Count of elements : 1732
Stream size : 52.1 KiB (0%)
Title : full
Language : English
Default : No
Forced : No

Menu
00:00:00.000 : en:Main Titles / Doctor Finch
00:03:32.254 : en:The Importance of Christmas
00:07:26.696 : en:Meet the Neighbors
00:11:39.616 : en:A Born Salesman
00:16:58.517 : en:Lights
00:20:17.174 : en:Runaway Sleigh
00:31:07.407 : en:New Christmas Guy
00:37:40.383 : en:Filing a Complaint
00:41:15.890 : en:The Best Dumb Idea
00:48:14.517 : en:Buddy's Revenge
00:54:48.452 : en:Winterfest
00:58:26.461 : en:Speed Skating Race
01:02:09.142 : en:Tia's Frustration
01:04:20.607 : en:Extravaganza
01:08:11.921 : en:Fireworks
01:12:03.694 : en:All Alone
01:17:01.784 : en:Christmas Spirit
01:22:21.186 : en:Working Together
01:27:51.266 : en:Visible From Space / End Titles
Скріншоти




Запис з ТБ: andic, xslim, OlegCena
Синхронізація : karvai0
Постер: thefir
Джерело: &
Особиста оцінка: 0 - не дивився


 Трекер:    Зареєстрований   

Завантажити / скачати фільм українською



відео для новачків



 Зареєстрований:   2018-07-13 14:22
 Розмір:   7.66 GB 
 Оцінка фільму:   10/10 (Голосів: 2)
   
bot 
робот


З нами з: 30.09.07
Востаннє: 26.05.05
Повідомлень: 20153

2018-07-11 20:41  
Тему перенесено з Фільми в HD до форуму Анонси релізів


staf777

bot 
робот


З нами з: 30.09.07
Востаннє: 26.05.05
Повідомлень: 20153

2018-07-13 14:22  
Тему перенесено з Анонси релізів до форуму Фільми в HD


staf777

Ваш часовий пояс: GMT + 2 Години

Нова тема   Відповісти