Трикутник / Triangle (2009) Remux 1080р 2xUkr/Eng | sub Ukr/En

Нові коментарі

Нова тема   Відповісти
Автор Повідомлення
staf777 
Відео Гуртом - підтримка та поширення
Відео Гуртом - підтримка та поширення


З нами з: 16.11.16
Востаннє: 27.05.19
Повідомлень: 2386

2018-07-11 20:39  
Трикутник / Triangle (2009) Remux 1080р 2xUkr/Eng | sub Ukr/Eng

Трикутник / Triangle (2009) Remux 1080р 2xUkr/Eng | sub Ukr/En


Жанр: трилер, містика, жахи
Країна: Велика Британія, Австралія



Кінокомпанія: Icon Entertainment International, Framestore, UK Film Council
Режисер: Крістофер Сміт / Christopher Smith
Актори: Меліса Джордж / Melissa George, Майкл Дорман / Michael Dorman, Генрі Ніксон / Henry Nixon, Рейчал Карпані / Rachael Carpani, Емма Ланґ / Emma Lung та інші

Сюжет:
Грег запрошує свою подругу Джесс, молоду матір-одиначку, провести день на яхті у колі своїх друзів. Сильний шторм перевертає судно, і ті, хто залишилися в живих, змушені чекати на допомогу, чіпляючись за перегорнутий корпус яхти. Порятунок приходить у вигляді величезного океанічного лайнера. Судно виявляється порожнім, годинник на борту зупинився. Але вони не єдині на цьому величезному кораблі - за ними хтось невпинно стежить...


Тривалість: 01:38:52
Якість: Remux 1080р
Відео:
кодек:
розмір кадру: 1920x1080
бітрейт: 24.5 Mб/с

Аудіо # 1:
мова: українська
переклад: багатоголосий закадровий
кодек: 2.0
бітрейт: 192 кб/с

Аудіо # 2:
мова: українська
переклад: багатоголосий закадровий
кодек: 2.0
бітрейт: 192 кб/с

Аудіо # 3:
мова: англійська
переклад: оригінал
кодек: -HD MA 5.1
бітрейт: 2249 кб/с

Аудіо # 4:
мова: англійська
переклад:(коментарі творця фільму)
кодек: 2.0
бітрейт: 192 кб/с

Аудіо # 5:
мова: англійська
переклад: |Commentary|
кодек: 2.0
бітрейт: 192 кб/с

Субтитри:
мова: українська
тип: програмні (м'які)
формат: *.srt

Субтитри:
мова: англійська
тип: програмні (м'які)
формат: *.srt
Info
General
Unique ID : 178832846355240396178511491404174943907 (0x8689F410F1D93BC886B9AEB3C68B66A3)
Complete name : D:\Фільми в HD\Жахи\Triangle (2009) Remux 1080р [2xUkr Eng] [Sub Ukr Eng][Hurtom].
Format :
Format version : Version 4 / Version 2
File size : 19.0 GiB
Duration : 1 h 38 min
Overall bit rate mode : Variable
Overall bit rate : 27.5 Mb/s
Movie name : Triangle (2009) Remux 1080р [2xUkr Eng] [Sub Ukr Eng][Hurtom]
Encoded date : UTC 2018-08-05 06:28:10
Writing application : v24.0.0 ('Beyond The Pale') 64-bit
Writing library : libebml v1.3.6 + v1.4.9
Cover : Yes
Attachments : Cover.jpg

Video
ID : 1
Format : AVC
Format/Info : Advanced Video Codec
Format profile : [email protected]
Format settings : CABAC / 4 Ref Frames
Format settings, CABAC : Yes
Format settings, ReFrames : 4 frames
Codec ID : V_MPEG4/ISO/AVC
Duration : 1 h 38 min
Bit rate mode : Variable
Bit rate : 24.5 Mb/s
Maximum bit rate : 38.9 Mb/s
Width : 1 920 pixels
Height : 1 080 pixels
Display aspect ratio : 16:9
Frame rate mode : Constant
Frame rate : 24.000 FPS
Standard : NTSC
Color space : YUV
Chroma subsampling : 4:2:0
Bit depth : 8 bits
Scan type : Progressive
Bits/(Pixel*Frame) : 0.492
Stream size : 16.9 GiB (89%)
Default : Yes
Forced : No
Color range : Limited
Color primaries : BT.709
Transfer characteristics : BT.709
Matrix coefficients : BT.709

Audio #1
ID : 2
Format : AC-3
Format/Info : Audio Coding 3
Codec ID : A_AC3
Duration : 1 h 38 min
Bit rate mode : Constant
Bit rate : 192 kb/s
Channel(s) : 2 channels
Channel positions : Front: L R
Sampling rate : 48.0 kHz
Frame rate : 31.250 FPS (1536 SPF)
Bit depth : 16 bits
Compression mode : Lossy
Stream size : 136 MiB (1%)
Title : 2.0 @ 192 kbps - НТН
Language : Ukrainian
Service kind : Complete Main
Default : Yes
Forced : Yes

Audio #2
ID : 3
Format : AC-3
Format/Info : Audio Coding 3
Codec ID : A_AC3
Duration : 1 h 38 min
Bit rate mode : Constant
Bit rate : 192 kb/s
Channel(s) : 2 channels
Channel positions : Front: L R
Sampling rate : 48.0 kHz
Frame rate : 31.250 FPS (1536 SPF)
Bit depth : 16 bits
Compression mode : Lossy
Stream size : 136 MiB (1%)
Title : 2.0 @ 192 kbps - НЛО
Language : Ukrainian
Service kind : Complete Main
Default : No
Forced : No

Audio #3
ID : 4
Format :
Format/Info : Digital Theater Systems
Format profile : MA / Core
Codec ID : A_DTS
Duration : 1 h 38 min
Bit rate mode : Variable / Constant
Bit rate : 2 249 kb/s / 1 509 kb/s
Channel(s) : 6 channels
Channel positions : Front: L C R, Side: L R, LFE
Sampling rate : 48.0 kHz
Frame rate : 93.750 FPS (512 SPF)
Bit depth : 16 bits
Compression mode : Lossless / Lossy
Stream size : 1.55 GiB (8%)
Language : English
Default : No
Forced : No

Audio #4
ID : 5
Format : AC-3
Format/Info : Audio Coding 3
Codec ID : A_AC3
Duration : 1 h 38 min
Bit rate mode : Constant
Bit rate : 192 kb/s
Channel(s) : 2 channels
Channel positions : Front: L R
Sampling rate : 48.0 kHz
Frame rate : 31.250 FPS (1536 SPF)
Bit depth : 16 bits
Compression mode : Lossy
Stream size : 136 MiB (1%)
Language : English
Service kind : Complete Main
Default : No
Forced : No

Audio #5
ID : 6
Format : AC-3
Format/Info : Audio Coding 3
Codec ID : A_AC3
Duration : 1 h 38 min
Bit rate mode : Constant
Bit rate : 192 kb/s
Channel(s) : 2 channels
Channel positions : Front: L R
Sampling rate : 48.0 kHz
Frame rate : 31.250 FPS (1536 SPF)
Bit depth : 16 bits
Compression mode : Lossy
Stream size : 136 MiB (1%)
Language : English
Service kind : Complete Main
Default : No
Forced : No

Text #1
ID : 7
Format : UTF-8
Codec ID : S_TEXT/UTF8
Codec ID/Info : UTF-8 Plain Text
Duration : 1 h 33 min
Bit rate : 64 b/s
Count of elements : 780
Stream size : 43.7 KiB (0%)
Title : Full by ninenine
Language : Ukrainian
Default : No
Forced : No

Text #2
ID : 8
Format : UTF-8
Codec ID : S_TEXT/UTF8
Codec ID/Info : UTF-8 Plain Text
Duration : 1 h 33 min
Bit rate : 35 b/s
Count of elements : 898
Stream size : 24.1 KiB (0%)
Title : Full
Language : English
Default : No
Forced : No
Скріншоти




Подяки:
За запис з ТБ: Sando7, ratbol, POMEO, krigg070
за синхронізацію: patriot2305, krigg070
за субтитри: ninenine
за постер: Zubr139

Джерело: &
Особиста оцінка: 8 - мені сподобалося


Золотий реліз (завантажене не впливає на рейтинг)
 Трекер:    Зареєстрований   

Завантажити / скачати фільм українською



відео для новачків



 Зареєстрований:   2018-08-05 09:55
 Розмір:   19.01 GB 
 Оцінка фільму:   9.8/10 (Голосів: 6)
   
Інші релізи
   Трикутник / Triangle (2009) 1080p 2xUkr/Eng | sub Ukr/Eng IronBee  3 / 1   11.98 GB   2017-06-27 21:29 
   Трикутник / Triangle (2009) [MP4, 640x] apvAltisimo  1 / 0   659 MB   2016-12-27 19:27 
   Трикутник / Triangle (2009) AVC 2xUkr/Eng | sub Ukr/Eng krigg070  2 / 0   2.19 GB   2016-12-20 14:46 
   Трикутник / Triangle (2009) 720p Ukr/Eng | sub Ukr/Eng ninenine  6 / 0   5.69 GB   2013-10-27 11:08 
   Трикутник / Triangle (2009) patriot2305  2 / 0   1.38 GB   2013-10-26 18:15 
bot 
робот


З нами з: 30.09.07
Востаннє: 26.05.05
Повідомлень: 21388

2018-07-11 20:39  
Тему перенесено з Фільми в HD до форуму Анонси релізів


staf777

IronBee 
Поважний учасник


З нами з: 08.02.10
Востаннє: 26.05.19
Повідомлень: 219

2018-07-12 13:17  
хороший фільм
11994455 
Попереджень: 1
Попереджень: 1 


З нами з: 07.04.14
Востаннє: 26.05.19
Повідомлень: 314

2018-07-12 23:42  
В чому різниця між Аудіо # 4 і Аудіо # 5...
bot 
робот


З нами з: 30.09.07
Востаннє: 26.05.05
Повідомлень: 21388

2018-08-05 09:55  
Тему перенесено з Анонси релізів до форуму Фільми в HD


staf777

igor911 
Модератор відео


З нами з: 18.01.08
Востаннє: 27.05.19
Повідомлень: 12548

2018-08-05 10:01  
staf777, вкажи, чиї коментарі в аудіо №4, 5.
Ваш часовий пояс: GMT + 2 Години

Нова тема   Відповісти