Людина-павук: Трилогія / Spider-Man: Trilogy (2002/2004/2007) 1080p H.265 Ukr/Eng | Sub Eng

Нові коментарі

Нова тема   Відповісти
Автор Повідомлення
ukr_anonymous 
Попереджень: 1
Попереджень: 1 


З нами з: 16.04.18
Востаннє: 07.12.18
Повідомлень: 231

2018-07-11 18:09  
Людина-павук: Трилогія / Spider-Man: Trilogy (2002/2004/2007) 1080p H.265 Ukr/Eng | Sub Eng

Людина-павук: Трилогія / Spider-Man: Trilogy (2002/2004/2007) 1080p H.265 Ukr/Eng | Sub Eng


Людина-павук / Spider-Man (2002) mini 1080p H.265 Ukr/Eng | Sub Eng
Людина-павук / Spider-Man (2002) mini 1080p H.265 Ukr/Eng | Sub Eng

Людина-павук: Трилогія / Spider-Man: Trilogy (2002/2004/2007) 1080p H.265 Ukr/Eng | Sub Eng


Жанр: кінокомікс, бойовик, пригодницький, фантастика
Країна: США



Кінокомпанія: Columbia Pictures Corporation, Marvel Enterprises, Laura Ziskin Productions
Режисер: Сем Реймі
Актори: Тобі Магвайр, Віллем Дефо, Кірстен Данст, Джеймс Франко, Кліфф Робертсон, Розмарі Гарріс, Дж. К. Сіммонс, Джо Манґаніелло, Джеррі Бекер, Білл Нанн, Елізабет Бенкс

Сюжет:
Ще вчора Пітер Паркер був звичайним школярем, якого всі вважали невдахою і занудою, але в один прекрасний день з ним відбувається диво. Пітера кусає павук-мутант, після чого з юнаком відбуваються дивні речі. Неймовірним чином загострюються всі його почуття, з'являється величезна сила і спритність, а головне — уміння лазити по стінах і пересуватись з допомогою міцної павутини! Так Пітер починає нове життя в образі таємничої Людини-павука, рятівника людей і грози злочинного світу. Але там, де є супергерой, рано чи пізно завжди появляється суперлиходій. І незабаром Людині-павуку доведеться битися із Зеленим Ґобліном — монстром, який нищить місто на літаючому ґлайдері. У цій великій битві вирішиться не тільки їх доля, але й долі жителів міста...


Тривалість: 02:01:12
Якість:
Відео:
кодек: H.265 (HEVC)
розмір кадру: 1920 х 1036
бітрейт: 4 998 кб/с
бітова глибина: 10 біт
Увага! Перед завантаженням переконайтесь, що ваш пристрій відтворення (та/або ПЗ) підтримує H.265 (HEVC)

Аудіо # 1:
мова: українська
переклад: багатоголосий закадровий
кодек: 5.1
бітрейт: 448 кб/с

Аудіо # 2:
мова: англійська
переклад: оригінал
кодек: 5.1
бітрейт: 460 кб/с

Субтитри # 1-2:
мова: англійська
тип: пререндерні
формат: .pgs
Info
General
Unique ID : 116621489490909710944175808327058537088 (0x57BC7B5C49D12C9F7F75BD4DA0613A80)
Complete name : E:\Video\Spider-Man - Trilogy (2002-2007) 1080p H.265\Spider-Man (2002) 1080p H.265 [UKR_ENG].
Format :
Format version : Version 4 / Version 2
File size : 5.02 GiB
Duration : 2 h 1 min
Overall bit rate : 5 928 kb/s
Movie name : Spider-Man (2002)
Encoded date : UTC 2018-07-11 15:22:34
Writing application : v22.0.0 ('At The End Of The World') 64-bit
Writing library : libebml v1.3.5 + v1.4.8
Cover : Yes
Attachments : Cover.jpg

Video
ID : 1
Format : HEVC
Format/Info : High Efficiency Video Coding
Format profile : Main [email protected]@Main
Codec ID : V_MPEGH/ISO/HEVC
Duration : 2 h 1 min
Bit rate : 4 998 kb/s
Width : 1 920 pixels
Height : 1 036 pixels
Display aspect ratio : 1.85:1
Frame rate mode : Constant
Frame rate : 23.976 (24000/1001) FPS
Original frame rate : 23.976 (23976/1000) FPS
Color space : YUV
Chroma subsampling : 4:2:0
Bit depth : 10 bits
Bits/(Pixel*Frame) : 0.105
Stream size : 4.23 GiB (84%)
Writing library : x265 1.9:[Linux][GCC 4.6.2][64 bit] 10bit
Encoding settings : wpp / ctu=64 / min-cu-size=8 / max-tu-size=32 / tu-intra-depth=1 / tu-inter-depth=1 / me=3 / subme=3 / merange=57 / rect / no-amp / max-merge=3 / temporal-mvp / no-early-skip / rdpenalty=0 / no-tskip / no-tskip-fast / strong-intra-smoothing / no-lossless / no-cu-lossless / no-constrained-intra / no-fast-intra / no-open-gop / no-temporal-layers / interlace=0 / keyint=250 / min-keyint=23 / scenecut=0 / rc-lookahead=25 / lookahead-slices=4 / bframes=4 / bframe-bias=0 / b-adapt=2 / ref=3 / limit-refs=3 / limit-modes / weightp / no-weightb / aq-mode=1 / qg-size=32 / aq-strength=1.00 / cbqpoffs=0 / crqpoffs=0 / rd=4 / psy-rd=2.00 / rdoq-level=2 / psy-rdoq=1.00 / signhide / deblock / sao / no-sao-non-deblock / b-pyramid / cutree / no-intra-refresh / rc=2 / pass / bitrate=5000 / qcomp=0.60 / qpmin=0 / qpmax=51 / qpstep=4 / cplxblur=20.0 / qblur=0.5 / ipratio=1.40 / pbratio=1.30
Default : Yes
Forced : No

Audio #1
ID : 2
Format : AC-3
Format/Info : Audio Coding 3
Codec ID : A_AC3
Duration : 2 h 1 min
Bit rate mode : Constant
Bit rate : 448 kb/s
Channel(s) : 6 channels
Channel positions : Front: L C R, Side: L R, LFE
Sampling rate : 48.0 kHz
Frame rate : 31.250 FPS (1536 SPF)
Bit depth : 16 bits
Compression mode : Lossy
Stream size : 388 MiB (8%)
Title : / 5.1 / Inter
Language : Ukrainian
Service kind : Complete Main
Default : Yes
Forced : No

Audio #2
ID : 3
Format :
Format/Info : Advanced Audio Codec
Format profile : LC
Codec ID : A_AAC-2
Duration : 2 h 1 min
Bit rate : 460 kb/s
Channel(s) : 6 channels
Channel positions : Front: L C R, Side: L R, LFE
Sampling rate : 48.0 kHz
Frame rate : 46.875 FPS (1024 SPF)
Compression mode : Lossy
Delay relative to video : 9 ms
Stream size : 398 MiB (8%)
Title : LC- / 5.1 / Original
Language : English
Default : No
Forced : No

Text #1
ID : 4
Format : PGS
Muxing mode : zlib
Codec ID : S_HDMV/PGS
Codec ID/Info : Picture based subtitle format used on BDs/HD-DVDs
Duration : 1 h 52 min
Bit rate : 28.0 kb/s
Count of elements : 2403
Stream size : 22.5 MiB (0%)
Language : English
Default : No
Forced : No

Text #2
ID : 5
Format : PGS
Muxing mode : zlib
Codec ID : S_HDMV/PGS
Codec ID/Info : Picture based subtitle format used on BDs/HD-DVDs
Duration : 1 h 54 min
Bit rate : 22.0 kb/s
Count of elements : 2767
Stream size : 18.1 MiB (0%)
Language : English
Default : No
Forced : No

Menu
00:00:00.000 : en:Opening Credits
00:06:29.472 : en:Columbia University Research Lab
00:09:22.895 : en:Bitten By a Spider
00:14:56.186 : en:Norman Tests the Performance Enhancers
00:17:50.652 : en:A Big Change
00:21:53.603 : en:Great Reflexes
00:23:28.615 : en:Fight with Flash
00:25:18.767 : en:Scaling the Heights
00:34:35.114 : en:With Great Power...
00:40:22.169 : en:The Wrestling Match
00:41:44.126 : en:Enter the Thief
00:43:13.882 : en:The Death of Uncle Ben
00:44:40.010 : en:Chasing Uncle Ben's Killer
00:54:32.978 : en:Spider-Man to the Rescue
00:55:52.557 : en:J. Jonah Jameson
01:00:48.936 : en:Peter's Photos of Spider-Man
01:04:20.773 : en:World Unity Festival
01:05:57.036 : en:Battle Over Times Square
01:12:12.369 : en:Norman Meets the Goblin
01:14:18.871 : en:Goblin Terrorizes the Bugle
01:15:48.669 : en:The Goblin's Proposal
01:19:35.520 : en:The Alley Kiss
01:22:06.463 : en:Hot Time with the Goblin
01:25:13.608 : en:Thanksgiving Dinner
01:30:39.225 : en:Goblin Attacks Aunt May
01:39:36.679 : en:The Queensboro Bridge
01:45:08.385 : en:Don't Tell Harry
01:50:27.829 : en:Norman's Funeral (End Credits)
Скріншоти



Людина-павук 2 / Spider-Man 2 (2004) 1080p H.265 Ukr/Eng | Sub Eng
Людина-павук 2 / Spider-Man 2 (2004) 1080p H.265 Ukr/Eng | Sub Eng

Людина-павук: Трилогія / Spider-Man: Trilogy (2002/2004/2007) 1080p H.265 Ukr/Eng | Sub Eng


Жанр: бойовик, фантастика, трилер, кінокомікс
Країна: США



Кінокомпанія: Columbia Pictures Corporation, Marvel Enterprises, Laura Ziskin Productions
Режисер: Сем Реймі
Актори: Тобі Магвайр, Кірстен Данст, Джеймс Франко, Альфред Моліна, Розмарі Гарріс, Дж. К. Сіммонс, Донна Мерфі, Деніел Ґілліс, Ділан Бейкер, Білл Нанн, Елізабет Бенкс

Сюжет:
Життя Пітера Паркера далеке від ідеалу — щодня він рятує життя жителів Нью-Йорка, в той час, як його власне стає все складнішим. Мері Джейн зізнається йому, що збирається вийти заміж за астронавта Джона — сина Джей Джона Джеймсона. Його тітці Мей загрожує виселення, а після невдалого експерименту учений Отто Октавіус стає зловісним Доктором Восьминогом, який мріє знищити Нью-Йорк.


Тривалість: 02:07:28
Якість:
Відео:
кодек: H.265 (HEVC)
розмір кадру: 1920 х 804
бітрейт: 4 998 кб/с
бітова глибина: 10 біт
Увага! Перед завантаженням переконайтесь, що ваш пристрій відтворення (та/або ПЗ) підтримує H.265 (HEVC)

Аудіо # 1:
мова: українська
переклад: багатоголосий закадровий
кодек: 5.1
бітрейт: 448 кб/с

Аудіо # 2:
мова: англійська
переклад: оригінал
кодек: 5.1
бітрейт: 424 кб/с

Субтитри # 1:
мова: англійська
тип: програмні (м'які)
формат: .pgs
Info
General
Unique ID : 168561522017494539251872688848732863889 (0x7ECFC4AD81A5CB55E0BE654BCC16BD91)
Complete name : E:\Video\Spider-Man - Trilogy (2002-2007) 1080p H.265\Spider-Man 2 (2004) 1080p H.265 [UKR_ENG].
Format :
Format version : Version 4 / Version 2
File size : 5.24 GiB
Duration : 2 h 7 min
Overall bit rate : 5 881 kb/s
Movie name : Spider-Man 2 (2004)
Encoded date : UTC 2018-07-11 15:29:01
Writing application : v22.0.0 ('At The End Of The World') 64-bit
Writing library : libebml v1.3.5 + v1.4.8
Cover : Yes
Attachments : Cover.jpg

Video
ID : 1
Format : HEVC
Format/Info : High Efficiency Video Coding
Format profile : Main [email protected]@Main
Codec ID : V_MPEGH/ISO/HEVC
Duration : 2 h 7 min
Bit rate : 4 998 kb/s
Width : 1 920 pixels
Height : 804 pixels
Display aspect ratio : 2.40:1
Frame rate mode : Constant
Frame rate : 23.976 (24000/1001) FPS
Original frame rate : 23.976 (23976/1000) FPS
Color space : YUV
Chroma subsampling : 4:2:0
Bit depth : 10 bits
Bits/(Pixel*Frame) : 0.135
Stream size : 4.45 GiB (85%)
Writing library : x265 1.9:[Linux][GCC 4.6.2][64 bit] 10bit
Encoding settings : wpp / ctu=64 / min-cu-size=8 / max-tu-size=32 / tu-intra-depth=1 / tu-inter-depth=1 / me=3 / subme=3 / merange=57 / rect / no-amp / max-merge=3 / temporal-mvp / no-early-skip / rdpenalty=0 / no-tskip / no-tskip-fast / strong-intra-smoothing / no-lossless / no-cu-lossless / no-constrained-intra / no-fast-intra / no-open-gop / no-temporal-layers / interlace=0 / keyint=250 / min-keyint=23 / scenecut=0 / rc-lookahead=25 / lookahead-slices=4 / bframes=4 / bframe-bias=0 / b-adapt=2 / ref=3 / limit-refs=3 / limit-modes / weightp / no-weightb / aq-mode=1 / qg-size=32 / aq-strength=1.00 / cbqpoffs=0 / crqpoffs=0 / rd=4 / psy-rd=2.00 / rdoq-level=2 / psy-rdoq=1.00 / signhide / deblock / sao / no-sao-non-deblock / b-pyramid / cutree / no-intra-refresh / rc=2 / pass / bitrate=5000 / qcomp=0.60 / qpmin=0 / qpmax=51 / qpstep=4 / cplxblur=20.0 / qblur=0.5 / ipratio=1.40 / pbratio=1.30
Default : Yes
Forced : No

Audio #1
ID : 2
Format : AC-3
Format/Info : Audio Coding 3
Codec ID : A_AC3
Duration : 2 h 7 min
Bit rate mode : Constant
Bit rate : 448 kb/s
Channel(s) : 6 channels
Channel positions : Front: L C R, Side: L R, LFE
Sampling rate : 48.0 kHz
Frame rate : 31.250 FPS (1536 SPF)
Bit depth : 16 bits
Compression mode : Lossy
Stream size : 408 MiB (8%)
Title : / 5.1 / K1
Language : Ukrainian
Service kind : Complete Main
Default : Yes
Forced : No

Audio #2
ID : 3
Format :
Format/Info : Advanced Audio Codec
Format profile : LC
Codec ID : A_AAC-2
Duration : 2 h 7 min
Bit rate : 424 kb/s
Channel(s) : 6 channels
Channel positions : Front: L C R, Side: L R, LFE
Sampling rate : 48.0 kHz
Frame rate : 46.875 FPS (1024 SPF)
Compression mode : Lossy
Delay relative to video : 9 ms
Stream size : 386 MiB (7%)
Title : LC- / 5.1 / Original
Language : English
Default : No
Forced : No

Text
ID : 4
Format : PGS
Muxing mode : zlib
Codec ID : S_HDMV/PGS
Codec ID/Info : Picture based subtitle format used on BDs/HD-DVDs
Duration : 1 h 58 min
Bit rate : 22.1 kb/s
Count of elements : 2190
Stream size : 18.8 MiB (0%)
Language : English
Default : No
Forced : No

Menu #1
00:00:00.000 : en:Main Titles
00:03:27.457 : en:Pizza Man
00:07:24.903 : en:J. Jonah Jameson
00:08:52.824 : en:Dr. Connors
00:10:06.314 : en:"Surprise!"
00:14:28.951 : en:Peter and MJ in the Backyard
00:17:07.443 : en:Mr. Ditkovich
00:18:55.551 : en:Otto Octavius
00:22:12.498 : en:Wash 'n' Dry
00:22:50.536 : en:The Importance of Being Earnest
00:24:23.712 : en:Car Chase
00:26:22.122 : en:The Importance of Being on Time
00:28:27.581 : en:Web Failure
00:29:35.065 : en:The Elevator
00:31:03.653 : en:Peter Calls MJ
00:33:09.863 : en:Otto's Demonstration
00:39:50.513 : en:Horror Hospital
00:41:50.758 : en:Ock Awakens to the Horror
00:43:09.128 : en:New Villain in Town
00:44:40.219 : en:Doc Ock's Lair
00:46:57.231 : en:Bank Heist
00:50:01.165 : en:Battle Building
00:53:02.262 : en:Planetarium Party
00:58:04.773 : en:Spidey Crash Lands in Alley
00:59:36.281 : en:Ock Rebuilds
01:00:01.473 : en:Diagnosis
01:01:31.271 : en:Spider-Man No More
01:03:40.400 : en:"Raindrops Keep Falling on My Head"
01:05:24.420 : en:Peter Attends MJ's Play
01:08:14.424 : en:Jameson Gets the Suit
01:09:40.676 : en:Peter's Confession
01:13:48.424 : en:One More Little Chore
01:16:42.348 : en:Peter and the Burning Building
01:19:16.168 : en:Frustration
01:21:25.964 : en:Peter and Aunt May in the Backyard
01:25:16.194 : en:"My Back! My Back!"
01:26:49.371 : en:MJ Doubts John's the One
01:28:11.286 : en:"Do You Love Me, or Not?"
01:30:40.143 : en:Enter the Octopus
01:33:05.163 : en:He's Back
01:34:12.772 : en:Clock Tower Fight
01:35:10.872 : en:The Train
01:37:12.368 : en:A Train to Catch
01:39:56.449 : en:Grateful Train Passengers
01:42:38.611 : en:Harry Learns the Truth About Peter
01:44:52.828 : en:The Final Confrontation
01:48:03.644 : en:Peter Appeals to Otto
01:53:07.614 : en:Web Love
01:55:30.173 : en:The Return of the Green Goblin
01:57:56.903 : en:Here Comes the Bride
02:01:54.474 : en:The Final Swing
02:02:44.148 : en:End Credits

Menu #2
00:00:00.000 : en:Main Titles
00:03:27.457 : en:Pizza Man
00:07:24.903 : en:J. Jonah Jameson
00:08:52.824 : en:Dr. Connors
00:10:06.314 : en:"Surprise!"
00:14:28.951 : en:Peter and MJ in the Backyard
00:17:07.443 : en:Mr. Ditkovich
00:18:55.551 : en:Otto Octavius
00:22:12.498 : en:Wash 'n' Dry
00:22:50.536 : en:The Importance of Being Earnest
00:24:23.712 : en:Car Chase
00:26:22.122 : en:The Importance of Being on Time
00:28:27.581 : en:Web Failure
00:29:35.065 : en:The Elevator
00:31:03.653 : en:Peter Calls MJ
00:33:09.863 : en:Otto's Demonstration
00:39:50.513 : en:Horror Hospital
00:41:50.758 : en:Ock Awakens to the Horror
00:43:09.128 : en:New Villain in Town
00:44:40.219 : en:Doc Ock's Lair
00:46:57.231 : en:Bank Heist
00:50:01.165 : en:Battle Building
00:53:02.262 : en:Planetarium Party
00:58:04.773 : en:Spidey Crash Lands in Alley
00:59:36.281 : en:Ock Rebuilds
01:00:01.473 : en:Diagnosis
01:01:31.271 : en:Spider-Man No More
01:03:40.400 : en:"Raindrops Keep Falling on My Head"
01:05:24.420 : en:Peter Attends MJ's Play
01:08:14.424 : en:Jameson Gets the Suit
01:09:40.676 : en:Peter's Confession
01:13:48.424 : en:One More Little Chore
01:16:42.348 : en:Peter and the Burning Building
01:19:16.168 : en:Frustration
01:21:25.964 : en:Peter and Aunt May in the Backyard
01:25:16.194 : en:"My Back! My Back!"
01:26:49.371 : en:MJ Doubts John's the One
01:28:11.286 : en:"Do You Love Me, or Not?"
01:30:40.143 : en:Enter the Octopus
01:33:05.163 : en:He's Back
01:34:12.772 : en:Clock Tower Fight
01:35:10.872 : en:The Train
01:37:12.368 : en:A Train to Catch
01:39:56.449 : en:Grateful Train Passengers
01:42:38.611 : en:Harry Learns the Truth About Peter
01:44:52.828 : en:The Final Confrontation
01:48:03.644 : en:Peter Appeals to Otto
01:53:07.614 : en:Web Love
01:55:30.173 : en:The Return of the Green Goblin
01:57:56.903 : en:Here Comes the Bride
02:01:54.474 : en:The Final Swing
02:02:44.148 : en:End Credits
Скріншоти



Людина-павук. Ворог у тіні / Людина-павук 3. Ворог у відбитті / Spider-Man 3 (2007) 1080p H.265 2xUkr/Eng | Sub Eng
Людина-павук. Ворог у тіні / Людина-павук 3. Ворог у відбитті / Spider-Man 3 (2007) 1080p H.265 2xUkr/Eng | Sub Eng

Людина-павук: Трилогія / Spider-Man: Trilogy (2002/2004/2007) 1080p H.265 Ukr/Eng | Sub Eng


Жанр: кінокомікс, фантастика, бойовик
Країна: США



Кінокомпанія: Columbia Pictures, Marvel Studios, Laura Ziskin Productions
Режисер: Сем Реймі
Актори: Тобі Магвайр, Кірстен Данст, Джеймс Франко, Томас Гейден Черч, Тофер Ґрейс, Брайс Даллас Говард, Розмарі Гарріс, Дж. К. Сіммонс, Джеймс Кромвелл, Тереза Расселл, Елізабет Бенкс

Сюжет:
Пітер Паркер, здається, прекрасно навчився жити декількома життями. Він добре вчиться, Нью-Йорк визнав його героєм, стосунки з Мері Джейн міцні. Пітер навіть має намір зробити їй пропозицію! Але на жаль, його друг Гаррі Озборн як і раніше вважає, що саме Людина-павук винний у смерті його батька. Гаррі має намір помститися йому в образі нового Ґобліна. У той же час на кримінальній сцені Нью-Йорка з'являється інший могутній лиходій. Коли Людина-павук одягає таємничий чорний костюм, його темна мстива сторона повністю поглинає його. Ці переміни примушують його зустрітися з найсильнішим ворогом: із самим собою...


Тривалість: 02:19:11
Якість:
Відео:
кодек: H.265 (HEVC)
розмір кадру: 1920 х 800
бітрейт: 4 996 кб/с
бітова глибина: 10 біт
Увага! Перед завантаженням переконайтесь, що ваш пристрій відтворення (та/або ПЗ) підтримує H.265 (HEVC)

Аудіо # 1:
мова: українська
переклад: професійний дубльований
кодек: 5.1
бітрейт: 384 кб/с

Аудіо # 2:
мова: українська
переклад: багатоголосий закадровий
кодек: 2.0
бітрейт: 192 кб/с

Аудіо # 3:
мова: англійська
переклад: оригінал
кодек: 5.1
бітрейт: 419 кб/с

Субтитри # 1-2:
мова: англійська
тип: програмні (м'які)
формат: .pgs
Info
General
Unique ID : 223776807097773201528870487464097589214 (0xA859D869D578BF7CBFEDBDEC65D7A7DE)
Complete name : E:\Video\Spider-Man - Trilogy (2002-2007) 1080p H.265\Spider-Man 3 (2007) 1080p H.265 [2xUKR_ENG].
Format :
Format version : Version 4 / Version 2
File size : 5.84 GiB
Duration : 2 h 19 min
Overall bit rate : 6 010 kb/s
Movie name : Spider-Man 3 (2007)
Encoded date : UTC 2018-07-11 16:01:16
Writing application : v22.0.0 ('At The End Of The World') 64-bit
Writing library : libebml v1.3.5 + v1.4.8
Cover : Yes
Attachments : Cover.jpg

Video
ID : 1
Format : HEVC
Format/Info : High Efficiency Video Coding
Format profile : Main [email protected]@Main
Codec ID : V_MPEGH/ISO/HEVC
Duration : 2 h 19 min
Bit rate : 4 996 kb/s
Width : 1 920 pixels
Height : 800 pixels
Display aspect ratio : 2.40:1
Frame rate mode : Constant
Frame rate : 23.976 (24000/1001) FPS
Original frame rate : 23.976 (23976/1000) FPS
Color space : YUV
Chroma subsampling : 4:2:0
Bit depth : 10 bits
Bits/(Pixel*Frame) : 0.136
Stream size : 4.86 GiB (83%)
Writing library : x265 1.9:[Linux][GCC 4.6.2][64 bit] 10bit
Encoding settings : wpp / ctu=64 / min-cu-size=8 / max-tu-size=32 / tu-intra-depth=1 / tu-inter-depth=1 / me=3 / subme=3 / merange=57 / rect / no-amp / max-merge=3 / temporal-mvp / no-early-skip / rdpenalty=0 / no-tskip / no-tskip-fast / strong-intra-smoothing / no-lossless / no-cu-lossless / no-constrained-intra / no-fast-intra / no-open-gop / no-temporal-layers / interlace=0 / keyint=250 / min-keyint=23 / scenecut=0 / rc-lookahead=25 / lookahead-slices=4 / bframes=4 / bframe-bias=0 / b-adapt=2 / ref=3 / limit-refs=3 / limit-modes / weightp / no-weightb / aq-mode=1 / qg-size=32 / aq-strength=1.00 / cbqpoffs=0 / crqpoffs=0 / rd=4 / psy-rd=2.00 / rdoq-level=2 / psy-rdoq=1.00 / signhide / deblock / sao / no-sao-non-deblock / b-pyramid / cutree / no-intra-refresh / rc=2 / pass / bitrate=5000 / qcomp=0.60 / qpmin=0 / qpmax=51 / qpstep=4 / cplxblur=20.0 / qblur=0.5 / ipratio=1.40 / pbratio=1.30
Default : Yes
Forced : No

Audio #1
ID : 2
Format : AC-3
Format/Info : Audio Coding 3
Codec ID : A_AC3
Duration : 2 h 19 min
Bit rate mode : Constant
Bit rate : 384 kb/s
Channel(s) : 6 channels
Channel positions : Front: L C R, Side: L R, LFE
Sampling rate : 48.0 kHz
Frame rate : 31.250 FPS (1536 SPF)
Bit depth : 16 bits
Compression mode : Lossy
Stream size : 382 MiB (6%)
Title : / 5.1 / DVD
Language : Ukrainian
Service kind : Complete Main
Default : Yes
Forced : No

Audio #2
ID : 3
Format : AC-3
Format/Info : Audio Coding 3
Codec ID : A_AC3
Duration : 2 h 19 min
Bit rate mode : Constant
Bit rate : 192 kb/s
Channel(s) : 2 channels
Channel positions : Front: L R
Sampling rate : 48.0 kHz
Frame rate : 31.250 FPS (1536 SPF)
Bit depth : 16 bits
Compression mode : Lossy
Stream size : 191 MiB (3%)
Title : / 2.0 / Inter
Language : Ukrainian
Service kind : Complete Main
Default : No
Forced : No

Audio #3
ID : 4
Format :
Format/Info : Advanced Audio Codec
Format profile : LC
Codec ID : A_AAC-2
Duration : 2 h 19 min
Bit rate : 419 kb/s
Channel(s) : 6 channels
Channel positions : Front: L C R, Side: L R, LFE
Sampling rate : 48.0 kHz
Frame rate : 46.875 FPS (1024 SPF)
Compression mode : Lossy
Delay relative to video : 9 ms
Stream size : 418 MiB (7%)
Title : LC- / 5.1 / Original
Language : English
Default : No
Forced : No

Text #1
ID : 5
Format : PGS
Muxing mode : zlib
Codec ID : S_HDMV/PGS
Codec ID/Info : Picture based subtitle format used on BDs/HD-DVDs
Duration : 2 h 17 min
Bit rate : 17.2 kb/s
Count of elements : 2933
Stream size : 16.9 MiB (0%)
Language : English
Default : No
Forced : No

Text #2
ID : 6
Format : PGS
Muxing mode : zlib
Codec ID : S_HDMV/PGS
Codec ID/Info : Picture based subtitle format used on BDs/HD-DVDs
Duration : 2 h 8 min
Bit rate : 21.4 kb/s
Count of elements : 2269
Stream size : 19.7 MiB (0%)
Language : English
Default : No
Forced : No

Menu
00:00:00.000 : en:Chapter 1
00:07:59.770 : en:Chapter 2
00:16:55.014 : en:Chapter 3
00:24:44.941 : en:Chapter 4
00:30:12.644 : en:Chapter 5
00:40:08.489 : en:Chapter 6
00:49:24.544 : en:Chapter 7
00:59:27.730 : en:Chapter 8
01:06:34.532 : en:Chapter 9
01:15:23.393 : en:Chapter 10
01:22:16.681 : en:Chapter 11
01:30:17.787 : en:Chapter 12
01:40:46.331 : en:Chapter 13
01:49:10.794 : en:Chapter 14
01:59:57.106 : en:Chapter 15
02:06:11.313 : en:Chapter 16
Скріншоти





Особиста оцінка: 10 - без зайвих вагань рекомендую всім!
Джерело:



ЗАЛИШАЙТЕСЬ ЯКОМОГА ДОВШЕ НА РОЗДАЧІ!
ЗАВАНТАЖИВ САМ - ДАЙ ЗАВАНТАЖИТИ ІНШИМ


Срібний реліз (на рейтинг впливає 50% завантаженого)
 Трекер:    Зареєстрований   

Завантажити / скачати фільм українською



відео для новачків



 Зареєстрований:   2018-07-11 18:09
 Розмір:   16.1 GB 
 Оцінка фільму:   8.9/10 (Голосів: 16)
   
hedgar2017 
Частий відвідувач


З нами з: 29.05.17
Востаннє: 10.12.18
Повідомлень: 32

2018-07-13 13:04  
Дуже тиха дубльована доріжка у 3-й частині. Зробив ремукс з доріжкою звідси https://toloka.to/t7183
ukr_anonymous 
Попереджень: 1
Попереджень: 1 


З нами з: 16.04.18
Востаннє: 07.12.18
Повідомлень: 231

2018-07-14 21:29  
hedgar2017
Можете надати цю доріжку? Я її сюди вставлю

BloodyAlexx 
Новенький


З нами з: 14.05.17
Востаннє: 09.12.18
Повідомлень: 11

2018-09-30 18:03  
Дуже дякую за виконану роботу! Нарешті, можна насолодитись цим фільмом у FHD якості з українською озвучкою!
Ваш часовий пояс: GMT + 2 Години

Нова тема   Відповісти