Дорожня пригода / Road Trip (2000) AVC Ukr/Eng | Sub Eng

Нові коментарі

Нова тема   Відповісти
Автор Повідомлення
staf777 
Попереджень: 1
Попереджень: 1 


З нами з: 16.11.16
Востаннє: 20.11.18
Повідомлень: 1766

2018-07-11 15:00  
Дорожня пригода / Road Trip (2000) AVC Ukr/Eng | Sub Eng

Дорожня пригода / Road Trip (2000) AVC Ukr/Eng | Sub Eng


Жанр: комедія, пригодницький
Країна: США



Кінокомпанія: DreamWorks
Режисер: Тодд Філіпс
Актори: Брікін Мейер, Шон Вільям Скот, Емі Смарт, Пауло Костанзо, Ді Джей Куалс, Том Грін

Сюжет:
Зраджувати своїй дівчині, скажемо прямо, недобре! І вже тим більше недобре записувати весь процес зради на камеру. І просто непробачно, нехай навіть помилково, відправляти пікантний відеозапис своїй дівчині в подарунок.
Тепер врятувати становище може тільки марш-кидок через всю Америку, щоб перехопити нещасливу плівку раніше, ніж вона потрапить до рук вашої коханої. Але не чекайте, що все буде йти «як по маслу". Вас чекає дорожня пригода, в порівнянні з якою поїздка на американських гірках - всього лише гра в пісочниці!


Тривалість: 01:34:13
Якість: AVC
Відео:
кодек:
розмір кадру: 1024x576
бітрейт: 3500 кб/с

Аудіо # 1:
мова: українська
переклад: багатоголосий закадровий
кодек: 2.0
бітрейт: 128 кб/с

Аудіо # 2:
мова: англійська
переклад: оригінал
кодек: 5.1
бітрейт: 448 кб/с

Джерело озвучення:


Субтитри:
мова: англійська
тип: програмні (м'які)
формат: *.srt
Скріншоти



Info

Код:
General
Unique ID                   : 157978497642702051031648206562547810939 (0x76D98D4A7E795236096A6BC35AB9427B)
Complete name               : D:\Майбутні релізи\Road Trip (2000) AVC [Ukr,Eng sub.Eng][Hurtom].
Format                      :
Format version              : Version 4 / Version 2
File size                   : 2.68 GiB
Duration                    : 1 h 34 min
Overall bit rate            : 4 077 kb/s
Movie name                  : Road Trip (2000) AVC [Ukr,Eng sub.Eng][Hurtom]
Encoded date                : UTC 2018-07-11 12:35:40
Writing application         : v24.0.0 ('Beyond The Pale') 64-bit
Writing library             : libebml v1.3.6 + v1.4.9
Attachments                 : Road.Trip_front.jpg

Video
ID                          : 1
Format                      : AVC
Format/Info                 : Advanced Video Codec
Format profile              : [email protected]
Format settings             : CABAC / 9 Ref Frames
Format settings, CABAC      : Yes
Format settings, ReFrames   : 9 frames
Codec ID                    : V_MPEG4/ISO/AVC
Duration                    : 1 h 34 min
Bit rate                    : 3 500 kb/s
Width                       : 1 024 pixels
Height                      : 576 pixels
Display aspect ratio        : 16:9
Frame rate mode             : Constant
Frame rate                  : 23.976 (24000/1001) FPS
Color space                 : YUV
Chroma subsampling          : 4:2:0
Bit depth                   : 8 bits
Scan type                   : Progressive
Bits/(Pixel*Frame)          : 0.247
Stream size                 : 2.30 GiB (86%)
Title                       : -=MediaClub-kaspr=-
Writing library             : core 130 r2273 b3065e6
Encoding settings           : cabac=1 / ref=9 / deblock=1:-3:-3 / analyse=0x3:0x133 / me=umh / subme=11 / psy=1 / psy_rd=1.00:0.20 / mixed_ref=1 / me_range=48 / chroma_me=1 / trellis=2 / 8x8dct=1 / cqm=0 / deadzone=21,11 / fast_pskip=0 / chroma_qp_offset=-3 / threads=12 / lookahead_threads=3 / sliced_threads=0 / nr=0 / decimate=0 / interlaced=0 / bluray_compat=0 / constrained_intra=0 / bframes=10 / b_pyramid=2 / b_adapt=2 / b_bias=0 / direct=3 / weightb=1 / open_gop=0 / weightp=2 / keyint=240 / keyint_min=23 / scenecut=40 / intra_refresh=0 / rc=2pass / mbtree=0 / bitrate=3500 / ratetol=1.0 / qcomp=0.60 / qpmin=0 / qpmax=69 / qpstep=4 / cplxblur=20.0 / qblur=0.5 / ip_ratio=1.40 / pb_ratio=1.30 / aq=1:1.00
Default                     : Yes
Forced                      : Yes

Audio #1
ID                          : 2
Format                      : AC-3
Format/Info                 : Audio Coding 3
Codec ID                    : A_AC3
Duration                    : 1 h 34 min
Bit rate mode               : Constant
Bit rate                    : 128 kb/s
Channel(s)                  : 2 channels
Channel positions           : Front: L R
Sampling rate               : 48.0 kHz
Frame rate                  : 31.250 FPS (1536 SPF)
Bit depth                   : 16 bits
Compression mode            : Lossy
Delay relative to video     : 4 ms
Stream size                 : 86.2 MiB (3%)
Title                       : , 2ch, 128 Kbps (MVO) |Новий канал|
Language                    : Ukrainian
Service kind                : Complete Main
Default                     : Yes
Forced                      : Yes

Audio #2
ID                          : 3
Format                      : AC-3
Format/Info                 : Audio Coding 3
Codec ID                    : A_AC3
Duration                    : 1 h 34 min
Bit rate mode               : Constant
Bit rate                    : 448 kb/s
Channel(s)                  : 6 channels
Channel positions           : Front: L C R, Side: L R, LFE
Sampling rate               : 48.0 kHz
Frame rate                  : 31.250 FPS (1536 SPF)
Bit depth                   : 16 bits
Compression mode            : Lossy
Stream size                 : 302 MiB (11%)
Language                    : English
Service kind                : Complete Main
Default                     : No
Forced                      : No

Text
ID                          : 4
Format                      : UTF-8
Codec ID                    : S_TEXT/UTF8
Codec ID/Info               : UTF-8 Plain Text
Duration                    : 1 h 29 min
Bit rate                    : 69 b/s
Count of elements           : 1355
Stream size                 : 45.2 KiB (0%)
Language                    : English
Default                     : No
Forced                      : No

Menu
00:00:00.000                : en:1. Tour of Ithaca College
00:07:05.800                : en:2. Beth Likes Josh (Not Jacob)
00:09:28.943                : en:3. We Meet E.L.
00:11:27.604                : en:4. The Auction
00:15:58.040                : en:5. Josh Gets "Special" Attention
00:18:58.137                : en:6. "It's Boner Time!"
00:23:36.540                : en:7. We Meet Kyle
00:26:40.474                : en:8. The Rules of Cheating
00:30:26.700                : en:9. The Obligatory Shower Scene
00:33:11.448                : en:10. The Bridge
00:38:01.070                : en:11. Beford Motel
00:40:54.952                : en:12. Stealing from the Blind
00:46:17.942                : en:13. Feeding Time
00:49:42.771                : en:14. The Wrong Tiffany
00:53:18.237                : en:15. Kyle Is an Evil White Bigot
00:58:22.499                : en:16. Kyle and Rhonda
01:02:17.692                : en:17. Sperm Donations
01:06:10.675                : en:18. Barry vs. the Snake
01:08:17.760                : en:19. Grandpa Manilow
01:11:37.710                : en:20. Getting High with Grandpa
01:15:34.947                : en:21. Arrive at the U. of Austin
01:20:32.453                : en:22. Tiffany Watches the Tape
01:26:15.462                : en:23. Barry Wraps Up the Tour
01:30:08.194                : en:24. End Credits
Джерело: &
Особиста оцінка: 0 - не дивився


Срібний реліз (на рейтинг впливає 50% завантаженого)
 Трекер:    Зареєстрований   

Завантажити / скачати фільм українською



відео для новачків



 Зареєстрований:   2018-07-11 15:00
 Розмір:   2.68 GB 
 Оцінка фільму:   9.1/10 (Голосів: 17)
   
Інші релізи
   Дорожня пригода / Road Trip (2000) Givi  2 / 0   1.36 GB   2011-01-17 22:20 
Ваш часовий пояс: GMT + 2 Години

Нова тема   Відповісти