Із пекла / From Hell (2001) mini 1080p H.265 Ukr/Eng | Sub Eng

Нові коментарі

Нова тема   Відповісти
Автор Повідомлення
ukr_anonymous 
Попереджень: 1
Попереджень: 1 


З нами з: 17.04.18
Востаннє: 17.11.19
Повідомлень: 234

2018-07-11 12:00  
Із пекла / From Hell (2001) mini 1080p H.265 Ukr/Eng | Sub Eng

Із пекла / From Hell (2001) mini 1080p H.265 Ukr/Eng | Sub Eng


Жанр: кримінал, жахи, детектив
Країна: США



Кінокомпанія: 20th Century Fox Film Corporation, Underworld Entertainment
Режисер: Альберт Х'юз, Аллен Х'юз
Актори: Джонні Депп, Хізер Грем, Іен Холм, Роббі Колтрейн, Ієн Річардсон, Джейсон Флемінг, Кетрін Картлідж, Теренс Харві, С'юзен Лінч, Пол Ріс, Денні Мідуінтер, Джеймс Грін, Джоанна Пейдж, Аль Ештон, Девід Скофілд, Домінік Купер, Іен МакНіс, Ралф Айнесон

Сюжет:
Він втілення темряви та жаху. Він найтаємничіший і найзнаменитіший з всіх серійних убивць, відомих історії. Він занурив Англію в атмосферу страху й пролив масу чуток і здогадів. Убивця, що знає більше простого м'ясника або лаборанта. Убиваючи, він робить дивовижний ритуал. Його прізвисько - Джек-Різник. Піймати його намагається інспектор Фред Абберлайн (Джонні Депп). За допомогою опіуму він підсилює свій природний дар ясновидіння.


Тривалість: 02:02:13
Якість: mini
Відео:
кодек: H.265 (HEVC)
розмір кадру: 1920 х 816
бітрейт: 3 577 кб/с
бітова глибина: 10 біт
Увага! Перед завантаженням переконайтесь, що ваш пристрій відтворення (та/або ПЗ) підтримує H.265 (HEVC)

Аудіо # 1:
мова: українська
переклад: двоголосий закадровий
кодек: 5.1
бітрейт: 448 кб/с

Аудіо # 2:
мова: англійська
переклад: оригінал
кодек: 5.1
бітрейт: 448 кб/с

Субтитри # 1:
мова: англійська
тип: програмні (м'які)
формат: *.srt
Info
General
Unique ID : 320473427515101338067032146921881145106 (0xF118EFE20FBDD6AAA06329333EC50F12)
Complete name : E:\Video\From Hell (2001) 1080p H.265 [UKR_ENG].
Format :
Format version : Version 4 / Version 2
File size : 3.82 GiB
Duration : 2 h 2 min
Overall bit rate : 4 470 kb/s
Movie name : From Hell (2001)
Encoded date : UTC 2018-07-11 08:52:11
Writing application : v22.0.0 ('At The End Of The World') 64-bit
Writing library : libebml v1.3.5 + v1.4.8
Cover : Yes
Attachments : Cover.jpg

Video
ID : 1
Format : HEVC
Format/Info : High Efficiency Video Coding
Format profile : Main [email protected]@Main
Codec ID : V_MPEGH/ISO/HEVC
Duration : 2 h 2 min
Bit rate : 3 577 kb/s
Width : 1 920 pixels
Height : 816 pixels
Display aspect ratio : 2.35:1
Frame rate mode : Constant
Frame rate : 23.976 (24000/1001) FPS
Color space : YUV
Chroma subsampling : 4:2:0
Bit depth : 10 bits
Bits/(Pixel*Frame) : 0.095
Stream size : 3.05 GiB (80%)
Writing library : x265 2.8+19-bcdc610cf5f0:[Windows][GCC 7.3.0][64 bit] 10bit
Encoding settings : cpuid=1111039 / frame-threads=3 / numa-pools=8 / wpp / no-pmode / no-pme / no-psnr / no-ssim / log-level=2 / input-csp=1 / input-res=1920x816 / interlace=0 / total-frames=175800 / level-idc=0 / high-tier=1 / uhd-bd=0 / ref=4 / no-allow-non-conformance / no-repeat-headers / annexb / no-aud / no-hrd / info / hash=0 / no-temporal-layers / open-gop / min-keyint=23 / keyint=250 / gop-lookahead=0 / bframes=4 / b-adapt=2 / b-pyramid / bframe-bias=0 / rc-lookahead=25 / lookahead-slices=4 / scenecut=40 / radl=0 / no-intra-refresh / ctu=64 / min-cu-size=8 / rect / no-amp / max-tu-size=32 / tu-inter-depth=1 / tu-intra-depth=1 / limit-tu=0 / rdoq-level=2 / dynamic-rd=0.00 / no-ssim-rd / signhide / no-tskip / nr-intra=0 / nr-inter=0 / no-constrained-intra / strong-intra-smoothing / max-merge=3 / limit-refs=3 / limit-modes / me=3 / subme=3 / merange=57 / temporal-mvp / weightp / no-weightb / no-analyze-src-pics / deblock=0:0 / sao / no-sao-non-deblock / rd=4 / no-early-skip / rskip / no-fast-intra / no-tskip-fast / no-cu-lossless / no-b-intra / no-splitrd-skip / rdpenalty=0 / psy-rd=2.00 / psy-rdoq=1.00 / no-rd-refine / no-lossless / cbqpoffs=0 / crqpoffs=0 / rc=abr / bitrate=3579 / qcomp=0.60 / qpstep=4 / stats-write=0 / stats-read=2 / cplxblur=20.0 / qblur=0.5 / ipratio=1.40 / pbratio=1.30 / aq-mode=3 / aq-strength=1.00 / cutree / zone-count=0 / no-strict-cbr / qg-size=32 / no-rc-grain / qpmax=69 / qpmin=0 / no-const-vbv / sar=0 / overscan=0 / videoformat=5 / range=0 / colorprim=2 / transfer=2 / colormatrix=2 / chromaloc=0 / display-window=0 / max-cll=0,0 / min-luma=0 / max-luma=1023 / log2-max-poc-lsb=8 / vui-timing-info / vui-hrd-info / slices=1 / no-opt-qp-pps / no-opt-ref-list-length-pps / multi-pass-opt-rps / scenecut-bias=0.05 / no-opt-cu-delta-qp / aq-motion / no-hdr / no-hdr-opt / no-dhdr10-opt / no-idr-recovery-sei / analysis-reuse-level=5 / scale-factor=0 / refine-intra=0 / refine-inter=0 / refine-mv=0 / no-limit-sao / ctu-info=0 / no-lowpass-dct / refine-mv-type=0 / copy-pic=1 / max-ausize-factor=1.0 / no-dynamic-refine / no-single-sei
Default : Yes
Forced : No

Audio #1
ID : 2
Format : AC-3
Format/Info : Audio Coding 3
Codec ID : A_AC3
Duration : 2 h 2 min
Bit rate mode : Constant
Bit rate : 448 kb/s
Channel(s) : 6 channels
Channel positions : Front: L C R, Side: L R, LFE
Sampling rate : 48.0 kHz
Frame rate : 31.250 FPS (1536 SPF)
Bit depth : 16 bits
Compression mode : Lossy
Stream size : 392 MiB (10%)
Title : 1+1
Language : Ukrainian
Service kind : Complete Main
Default : Yes
Forced : No

Audio #2
ID : 3
Format : AC-3
Format/Info : Audio Coding 3
Codec ID : A_AC3
Duration : 2 h 2 min
Bit rate mode : Constant
Bit rate : 448 kb/s
Channel(s) : 6 channels
Channel positions : Front: L C R, Side: L R, LFE
Sampling rate : 48.0 kHz
Frame rate : 31.250 FPS (1536 SPF)
Bit depth : 16 bits
Compression mode : Lossy
Stream size : 392 MiB (10%)
Title : Оригінал
Language : English
Service kind : Complete Main
Default : No
Forced : No

Text
ID : 4
Format : UTF-8
Codec ID : S_TEXT/UTF8
Codec ID/Info : UTF-8 Plain Text
Duration : 2 h 1 min
Bit rate : 54 b/s
Count of elements : 1391
Stream size : 48.5 KiB (0%)
Language : English
Default : Yes
Forced : No

Menu
00:00:00.000 : en:Chapter 01
00:02:00.745 : en:Chapter 02
00:07:19.814 : en:Chapter 03
00:10:17.074 : en:Chapter 04
00:15:16.665 : en:Chapter 05
00:18:20.891 : en:Chapter 06
00:21:23.532 : en:Chapter 07
00:25:49.798 : en:Chapter 08
00:31:51.242 : en:Chapter 09
00:36:35.568 : en:Chapter 10
00:41:14.972 : en:Chapter 11
00:45:23.637 : en:Chapter 12
00:47:52.786 : en:Chapter 13
00:53:05.348 : en:Chapter 14
00:56:15.789 : en:Chapter 15
00:59:33.403 : en:Chapter 16
01:03:02.987 : en:Chapter 17
01:07:36.177 : en:Chapter 18
01:11:29.576 : en:Chapter 19
01:16:17.823 : en:Chapter 20
01:19:29.598 : en:Chapter 21
01:20:53.473 : en:Chapter 22
01:25:21.908 : en:Chapter 23
01:26:31.186 : en:Chapter 24
01:32:43.266 : en:Chapter 25
01:34:33.834 : en:Chapter 26
01:38:58.933 : en:Chapter 27
01:40:27.146 : en:Chapter 28
01:45:57.017 : en:Chapter 29
01:49:40.115 : en:Chapter 30
01:51:48.993 : en:Chapter 31
01:55:38.556 : en:Chapter 32
Скріншоти



Джерело:
Особиста оцінка: 0 - не дивився


ЗАЛИШАЙТЕСЬ ЯКОМОГА ДОВШЕ НА РОЗДАЧІ!
ЗАВАНТАЖИВ САМ - ДАЙ ЗАВАНТАЖИТИ ІНШИМ


Срібний реліз (на рейтинг впливає 50% завантаженого)
 Трекер:    Зареєстрований   

Завантажити / скачати фільм українською



відео для новачків



 Зареєстрований:   2018-07-11 12:00
 Розмір:   3.82 GB 
 Оцінка фільму:   8.4/10 (Голосів: 8)
   
Інші релізи
   Із пекла / From Hell (2001) 1080p Ukr/Eng | Sub Eng kvvdvd  3 / 0   10.89 GB   2016-11-09 01:40 
   Із пекла / From Hell (2001) patriot2305  2 / 0   1.45 GB   2015-07-10 09:14 
   Із пекла / From Hell (2001) Ukr/Eng hellforces  1 / 0   2.5 GB   2011-05-07 10:47 
   Із пекла / From Hell (2001) 720p Ukr/Eng | Sub Eng imonko  0 / 0   3.85 GB   2011-05-01 11:25 
Ваш часовий пояс: GMT + 2 Години

Нова тема   Відповісти