Острів собак / Isle of Dogs (2018) 1080p H.265 Ukr/Eng | Sub Ukr/Eng

Нові коментарі

Нова тема   Відповісти
Автор Повідомлення
ukr_anonymous 
Забанено
Забанено


З нами з: 16.04.18
Востаннє: 17.11.19
Повідомлень: 233

2018-07-11 10:52  
Острів собак / Isle of Dogs (2018) 1080p H.265 Ukr/Eng | Sub Ukr/Eng

Острів собак / Isle of Dogs (2018) 1080p H.265 Ukr/Eng | Sub Ukr/Eng


Жанр: анімація, драма, комедія, пригоди
Країна: США, Німеччина



Кінокомпанія: 20th Century Fox, Indian Paintbrush
Режисер: Вес Андерсон
Актори: Браян Кренстон, Кою Ранкін, Едвард Нортон, Білл Мюррей, Джеф Ґолдблум, Грета Гервіг, Френсіс МакДорманд, Скарлет Йоханссон, Гарві Кейтель, Тільда Суінтон та інші

Сюжет:
Події розгортаються у Японії у недалекому майбутньому. Острови перенаселені, тож людям дедалі складніше уживатися поряд. Уряд вирішує, що від хатніх улюбленців потрібно відмовитися, аби лишилось місце людям. Усіх собак вивозять на острів, до країв заповнений сміттям. На велетенському звалищі, без їжі та гідного догляду, живуть тисячі тварин. Дванадцятирічний хлопчик Атарі готовий на все, аби повернути собі найкращого друга – вірного пса. Хлопчина викрадає старезний літак та дістається острова. Тут, у компанії п'ятьох розумних та активних собак, він і шукатиме свого друга.


Тривалість: 01:41:08
Якість:
Відео:
кодек: H.265 (HEVC)
розмір кадру: 1920 х 804
бітрейт: 4 251 кб/с
бітова глибина: 10 біт
Увага! Перед завантаженням переконайтесь, що ваш пристрій відтворення (та/або ПЗ) підтримує H.265 (HEVC)

Аудіо # 1:
мова: українська
переклад: професійний дубльований
кодек: 5.1
бітрейт: 448 кб/с

Аудіо # 2:
мова: англійська
переклад: оригінал
кодек: 5.1
бітрейт: 448 кб/с

Субтитри # 1-2:
мова: українська (Forced, Full)
тип: програмні (м'які)
формат: *.srt

Субтитри # 3-4:
мова: англійська (Full, SDH)
тип: програмні (м'які)
формат: *.srt
Info
Код:
General
Unique ID                                : 256597921070608073245075224180929414551 (0xC10AF644B28B086C7EFABA7235254597)
Complete name                            : E:\Video\Isle of Dogs (2018) 1080p H.265 [UKR_ENG].
Format                                   :
Format version                           : Version 4 / Version 2
File size                                : 3.64 GiB
Duration                                 : 1 h 41 min
Overall bit rate                         : 5 149 kb/s
Movie name                               : Isle of Dogs (2018)
Encoded date                             : UTC 2018-09-01 19:53:52
Writing application                      : v20.0.0 ('I Am The Sun') 32-bit
Writing library                          : libebml v1.3.5 + v1.4.8
Cover                                    : Yes
Attachments                              : cover

Video
ID                                       : 1
Format                                   : HEVC
Format/Info                              : High Efficiency Video Coding
Format profile                           : Main [email protected]@Main
Codec ID                                 : V_MPEGH/ISO/HEVC
Duration                                 : 1 h 41 min
Bit rate                                 : 4 251 kb/s
Width                                    : 1 920 pixels
Height                                   : 804 pixels
Display aspect ratio                     : 2.40:1
Frame rate mode                          : Constant
Frame rate                               : 23.976 (24000/1001) FPS
Color space                              : YUV
Chroma subsampling                       : 4:2:0
Bit depth                                : 10 bits
Bits/(Pixel*Frame)                       : 0.115
Stream size                              : 3.00 GiB (83%)
Writing library                          : x265 2.8+19-bcdc610cf5f0:[Windows][GCC 7.3.0][64 bit] 10bit
Encoding settings                        : cpuid=1111039 / frame-threads=3 / numa-pools=8 / wpp / no-pmode / no-pme / no-psnr / no-ssim / log-level=2 / input-csp=1 / input-res=1920x804 / interlace=0 / total-frames=145530 / level-idc=0 / high-tier=1 / uhd-bd=0 / ref=4 / no-allow-non-conformance / no-repeat-headers / annexb / no-aud / no-hrd / info / hash=0 / no-temporal-layers / open-gop / min-keyint=23 / keyint=250 / gop-lookahead=0 / bframes=4 / b-adapt=2 / b-pyramid / bframe-bias=0 / rc-lookahead=25 / lookahead-slices=4 / scenecut=40 / radl=0 / no-intra-refresh / ctu=64 / min-cu-size=8 / rect / no-amp / max-tu-size=32 / tu-inter-depth=1 / tu-intra-depth=1 / limit-tu=0 / rdoq-level=2 / dynamic-rd=0.00 / no-ssim-rd / signhide / no-tskip / nr-intra=0 / nr-inter=0 / no-constrained-intra / strong-intra-smoothing / max-merge=3 / limit-refs=3 / limit-modes / me=3 / subme=3 / merange=57 / temporal-mvp / weightp / no-weightb / no-analyze-src-pics / deblock=0:0 / sao / no-sao-non-deblock / rd=4 / no-early-skip / rskip / no-fast-intra / no-tskip-fast / no-cu-lossless / no-b-intra / no-splitrd-skip / rdpenalty=0 / psy-rd=2.00 / psy-rdoq=1.00 / no-rd-refine / no-lossless / cbqpoffs=0 / crqpoffs=0 / rc=abr / bitrate=4250 / qcomp=0.60 / qpstep=4 / stats-write=0 / stats-read=2 / cplxblur=20.0 / qblur=0.5 / ipratio=1.40 / pbratio=1.30 / aq-mode=3 / aq-strength=1.00 / cutree / zone-count=0 / no-strict-cbr / qg-size=32 / no-rc-grain / qpmax=69 / qpmin=0 / no-const-vbv / sar=0 / overscan=0 / videoformat=5 / range=0 / colorprim=2 / transfer=2 / colormatrix=2 / chromaloc=0 / display-window=0 / max-cll=0,0 / min-luma=0 / max-luma=1023 / log2-max-poc-lsb=8 / vui-timing-info / vui-hrd-info / slices=1 / no-opt-qp-pps / no-opt-ref-list-length-pps / multi-pass-opt-rps / scenecut-bias=0.05 / no-opt-cu-delta-qp / aq-motion / no-hdr / no-hdr-opt / no-dhdr10-opt / no-idr-recovery-sei / analysis-reuse-level=5 / scale-factor=0 / refine-intra=0 / refine-inter=0 / refine-mv=0 / no-limit-sao / ctu-info=0 / no-lowpass-dct / refine-mv-type=0 / copy-pic=1 / max-ausize-factor=1.0 / no-dynamic-refine / no-single-sei
Default                                  : Yes
Forced                                   : No

Audio #1
ID                                       : 2
Format                                   : AC-3
Format/Info                              : Audio Coding 3
Codec ID                                 : A_AC3
Duration                                 : 1 h 41 min
Bit rate mode                            : Constant
Bit rate                                 : 448 kb/s
Channel(s)                               : 6 channels
Channel positions                        : Front: L C R, Side: L R, LFE
Sampling rate                            : 48.0 kHz
Frame rate                               : 31.250 FPS (1536 SPF)
Bit depth                                : 16 bits
Compression mode                         : Lossy
Stream size                              : 324 MiB (9%)
Title                                    : [UA-DUB| студія Postmodern]
Language                                 : Ukrainian
Service kind                             : Complete Main
Default                                  : Yes
Forced                                   : Yes

Audio #2
ID                                       : 3
Format                                   : AC-3
Format/Info                              : Audio Coding 3
Codec ID                                 : A_AC3
Duration                                 : 1 h 41 min
Bit rate mode                            : Constant
Bit rate                                 : 448 kb/s
Channel(s)                               : 6 channels
Channel positions                        : Front: L C R, Side: L R, LFE
Sampling rate                            : 48.0 kHz
Frame rate                               : 31.250 FPS (1536 SPF)
Bit depth                                : 16 bits
Compression mode                         : Lossy
Stream size                              : 324 MiB (9%)
Title                                    : 5.1 @ 448 kbps
Language                                 : English
Service kind                             : Complete Main
Default                                  : No
Forced                                   : No

Text #1
ID                                       : 4
Format                                   : UTF-8
Codec ID                                 : S_TEXT/UTF8
Codec ID/Info                            : UTF-8 Plain Text
Duration                                 : 1 h 32 min
Bit rate                                 : 4 b/s
Count of elements                        : 74
Stream size                              : 2.81 KiB (0%)
Title                                    : Forced
Language                                 : Ukrainian
Default                                  : Yes
Forced                                   : Yes

Text #2
ID                                       : 5
Format                                   : UTF-8
Codec ID                                 : S_TEXT/UTF8
Codec ID/Info                            : UTF-8 Plain Text
Duration                                 : 1 h 40 min
Bit rate                                 : 87 b/s
Count of elements                        : 1076
Stream size                              : 64.2 KiB (0%)
Title                                    : Full
Language                                 : Ukrainian
Default                                  : No
Forced                                   : No

Text #3
ID                                       : 6
Format                                   : UTF-8
Codec ID                                 : S_TEXT/UTF8
Codec ID/Info                            : UTF-8 Plain Text
Duration                                 : 1 h 33 min
Bit rate                                 : 56 b/s
Count of elements                        : 1203
Stream size                              : 38.8 KiB (0%)
Title                                    : Full
Language                                 : English
Default                                  : No
Forced                                   : No

Text #4
ID                                       : 7
Format                                   : UTF-8
Codec ID                                 : S_TEXT/UTF8
Codec ID/Info                            : UTF-8 Plain Text
Duration                                 : 1 h 35 min
Bit rate                                 : 63 b/s
Count of elements                        : 1429
Stream size                              : 44.4 KiB (0%)
Title                                    : SDH
Language                                 : English
Default                                  : No
Forced                                   : No

Menu
00:00:00.000                             : en:00:00:00.000
00:03:36.049                             : en:00:03:36.049
00:07:53.181                             : en:00:07:53.181
00:13:41.195                             : en:00:13:41.195
00:16:39.373                             : en:00:16:39.373
00:20:45.035                             : en:00:20:45.035
00:26:04.312                             : en:00:26:04.312
00:29:27.265                             : en:00:29:27.265
00:35:58.573                             : en:00:35:58.573
00:40:36.475                             : en:00:40:36.475
00:44:46.433                             : en:00:44:46.433
00:48:15.100                             : en:00:48:15.100
00:52:07.499                             : en:00:52:07.499
00:56:06.780                             : en:00:56:06.780
00:59:07.085                             : en:00:59:07.085
01:03:17.710                             : en:01:03:17.710
01:08:45.079                             : en:01:08:45.079
01:14:03.230                             : en:01:14:03.230
01:16:34.965                             : en:01:16:34.965
01:20:46.925                             : en:01:20:46.925
01:23:36.219                             : en:01:23:36.219
01:30:09.737                             : en:01:30:09.737
01:33:02.493                             : en:01:33:02.493
01:35:41.235                             : en:01:35:41.235
Скріншоти



Джерело: &
Особиста оцінка: 0 - не дивився


ЗАЛИШАЙТЕСЬ ЯКОМОГА ДОВШЕ НА РОЗДАЧІ!
ЗАВАНТАЖИВ САМ - ДАЙ ЗАВАНТАЖИТИ ІНШИМ


 Трекер:    Зареєстрований   

Завантажити / скачати мультфільм українською



відео для новачків



 Зареєстрований:   2018-09-01 22:05
 Розмір:   3.64 GB 
 Оцінка мультфільму:   9.4/10 (Голосів: 23)
   
Інші релізи
   Острів собак / Isle of Dogs (2018) AVC Ukr/Eng | Sub Ukr/Eng uafilm.tv  6 / 0   1.53 GB   2018-09-02 09:37 
   Острів собак / Isle of Dogs (2018) 720p Ukr/Eng | Sub Eng 11FrYkT  9 / 0   3.35 GB   2018-09-02 09:28 
   Острів собак / Isle of Dogs (2018) Ukr/Eng | Sub Ukr/Eng igor911  1 / 0   2.27 GB   2018-09-02 08:08 
   Острів собак / Isle of Dogs (2018) Remux 1080p Ukr/Eng | Sub Ukr/Eng staf777  5 / 0   21.67 GB   2018-09-01 18:39 
   Острів собак / Isle of Dogs (2018) 1080p Ukr/Eng | Sub Ukr/Eng staf777  3 / 0   7.31 GB   2018-09-01 18:14 
   Острів собак / Isle of Dogs (2018) igor911  4 / 0   1.46 GB   2018-09-01 17:18 
shroud 
Частий відвідувач


З нами з: 06.07.11
Востаннє: 11.02.21
Повідомлень: 35

2018-08-08 14:09  
Неочікувано привабливий мульт.
Все гарно, ще й саундтрек надодачу.
Моя 10-ка.

ukr_anonymous 
Забанено
Забанено


З нами з: 16.04.18
Востаннє: 17.11.19
Повідомлень: 233

2018-09-01 22:06  
Замінено укр. доріжку на кращу, та додано субтитри.

Ваш часовий пояс: GMT + 2 Години

Нова тема   Відповісти