Ловець снів / Dreamcatcher (2003) 1080p H.265 2xUkr/Eng | Sub Eng

Нові коментарі

Нова тема   Відповісти
Автор Повідомлення
ukr_anonymous 
Забанено
Забанено


З нами з: 17.04.18
Востаннє: 17.11.19
Повідомлень: 233

2018-07-11 11:40  
Ловець снів / Dreamcatcher (2003) 1080p H.265 2xUkr/Eng | Sub Eng

Ловець снів / Dreamcatcher (2003) 1080p H.265 2xUkr/Eng | Sub Eng


Жанр: жахи, фантастика, трилер
Країна: США, Австралія



Кінокомпанія: Castle Rock Entertainment, Village Roadshow Pictures, NPV Entertainment
Режисер: Лоуренс Кездан
Актори: Морган Фріман, Томас Джейн, Джейсон Лі, Даміан Льюіс, Тімоті Оліфант, Том Сайзмор, Донні Волберг, Майкі Хоулкамп, Ріс Томпсон, Джакомо Бессато

Сюжет:
Джoнcі, Гeнpі, Піт і Бівep. Двaдцять poків тoмy бyли пpocтo xлoпчиcькaми, щo мeшкaли в oднoмy нeвeликoмy міcтeчкy штaтy Meн.
Oднoгo paзy вoни вpятyвaли xлoпчикa. Haгopoдa зa пopятyнoк дивaкyвaтoгo xлoпчини нa ім'я Дaддітc aбcoлютнo нecпoдівaнo пpийшлa дo ниx y вигляді нaдпpиpoдниx cил, щo зв'язaлo вcіx п'ятьox нaйміцнішими вyзaми бpaтepcтвa.
Aлe кoли нa щopічнoмy пoлювaнні дpyзі зібpaлиcя paзoм y ліcoвій xaтині, тo зaміcть oчікyвaнoї тeплoї, вeceлoї aтмocфepи нaд ними пoчинaє згyщyвaтиcя aбcoлютнe злo, щo пpинocить зaгибeль.
Cпoчaткy дo ниx пoтpaпляє нeзнaйoмeць - миcливeць, який і нe підoзpює щo йoгo opгaнізм ypaжeний cмepтeльнoю пoгaнню.
Пoпepeдy - нaйбільшe пpoтиcтoяння жaxy, щo нe мaє aнaлoгів.


Тривалість: 02:13:47
Якість:
Відео:
кодек: H.265 (HEVC)
розмір кадру: 1920 х 798
бітрейт: 7 018 кб/с
бітова глибина: 10 біт
Увага! Перед завантаженням переконайтесь, що ваш пристрій відтворення (та/або ПЗ) підтримує H.265 (HEVC)

Аудіо # 1:
мова: українська
переклад: багатоголосий закадровий
кодек: 2.0
бітрейт: 192 кб/с

Аудіо # 2:
мова: українська
переклад: багатоголосий закадровий
кодек: 2.0
бітрейт: 192 кб/с

Аудіо # 3:
мова: англійська
переклад: оригінал
кодек: 5.1
бітрейт: 224 кб/с

Субтитри # 1:
мова: англійська
тип: програмні (м'які)
формат: *.srt
Info
General
Unique ID : 249057474613909378669702201761365037917 (0xBB5EB98E040BB31CA172FB8FF065135D)
Complete name : E:\Video\Dreamcatcher (2003) 1080p H.265 [2xUKR_ENG].
Format :
Format version : Version 4 / Version 2
File size : 7.13 GiB
Duration : 2 h 13 min
Overall bit rate : 7 628 kb/s
Movie name : Dreamcatcher (2003)
Encoded date : UTC 2018-07-03 20:50:07
Writing application : v22.0.0 ('At The End Of The World') 64-bit
Writing library : libebml v1.3.5 + v1.4.8
Cover : Yes
Attachments : Cover.jpg

Video
ID : 1
Format : HEVC
Format/Info : High Efficiency Video Coding
Format profile : Main [email protected]@High
Codec ID : V_MPEGH/ISO/HEVC
Duration : 2 h 13 min
Bit rate : 7 018 kb/s
Width : 1 920 pixels
Height : 798 pixels
Display aspect ratio : 2.40:1
Frame rate mode : Constant
Frame rate : 23.976 (24000/1001) FPS
Color space : YUV
Chroma subsampling : 4:2:0
Bit depth : 10 bits
Bits/(Pixel*Frame) : 0.191
Stream size : 6.56 GiB (92%)
Writing library : x265 2.7+340-aa9102400f24:[Windows][GCC 8.0.1][64 bit] 10bit
Encoding settings : cpuid=1049583 / frame-threads=4 / numa-pools=4 / wpp / no-pmode / no-pme / no-psnr / no-ssim / log-level=2 / input-csp=1 / input-res=1920x798 / interlace=0 / total-frames=192433 / level-idc=41 / high-tier=1 / uhd-bd=0 / ref=5 / no-allow-non-conformance / no-repeat-headers / annexb / no-aud / no-hrd / info / hash=0 / no-temporal-layers / open-gop / min-keyint=23 / keyint=240 / gop-lookahead=0 / bframes=10 / b-adapt=2 / b-pyramid / bframe-bias=0 / rc-lookahead=40 / lookahead-slices=4 / scenecut=40 / radl=0 / no-intra-refresh / ctu=64 / min-cu-size=8 / rect / amp / max-tu-size=32 / tu-inter-depth=3 / tu-intra-depth=3 / limit-tu=4 / rdoq-level=1 / dynamic-rd=0.00 / no-ssim-rd / signhide / no-tskip / nr-intra=0 / nr-inter=0 / no-constrained-intra / no-strong-intra-smoothing / max-merge=3 / limit-refs=2 / limit-modes / me=3 / subme=7 / merange=57 / temporal-mvp / weightp / weightb / no-analyze-src-pics / deblock=-3:-3 / no-sao / no-sao-non-deblock / rd=4 / no-early-skip / rskip / no-fast-intra / no-tskip-fast / no-cu-lossless / no-b-intra / no-splitrd-skip / rdpenalty=0 / psy-rd=2.00 / psy-rdoq=1.00 / no-rd-refine / no-lossless / cbqpoffs=0 / crqpoffs=0 / rc=crf / crf=18.0 / qcomp=0.60 / qpstep=4 / stats-write=0 / stats-read=0 / vbv-maxrate=50000 / vbv-bufsize=50000 / vbv-init=0.9 / crf-max=0.0 / crf-min=0.0 / ipratio=1.40 / pbratio=1.30 / aq-mode=1 / aq-strength=1.00 / cutree / zone-count=0 / no-strict-cbr / qg-size=32 / no-rc-grain / qpmax=69 / qpmin=0 / no-const-vbv / sar=1 / overscan=0 / videoformat=5 / range=0 / colorprim=1 / transfer=1 / colormatrix=1 / chromaloc=0 / display-window=0 / max-cll=0,0 / min-luma=0 / max-luma=1023 / log2-max-poc-lsb=8 / vui-timing-info / vui-hrd-info / slices=1 / no-opt-qp-pps / no-opt-ref-list-length-pps / no-multi-pass-opt-rps / scenecut-bias=0.05 / no-opt-cu-delta-qp / no-aq-motion / no-hdr / no-hdr-opt / no-dhdr10-opt / no-idr-recovery-sei / analysis-reuse-level=5 / scale-factor=0 / refine-intra=0 / refine-inter=0 / refine-mv=0 / no-limit-sao / ctu-info=0 / no-lowpass-dct / refine-mv-type=0 / copy-pic=1 / max-ausize-factor=1.0 / no-dynamic-refine / no-single-sei
Language : English
Default : Yes
Forced : No
Color range : Limited
Color primaries : BT.709
Transfer characteristics : BT.709
Matrix coefficients : BT.709

Audio #1
ID : 2
Format : AC-3
Format/Info : Audio Coding 3
Codec ID : A_AC3
Duration : 2 h 13 min
Bit rate mode : Constant
Bit rate : 192 kb/s
Channel(s) : 2 channels
Channel positions : Front: L R
Sampling rate : 48.0 kHz
Frame rate : 31.250 FPS (1536 SPF)
Bit depth : 16 bits
Compression mode : Lossy
Delay relative to video : 2 s 0 ms
Stream size : 184 MiB (3%)
Title : Багатоголосий | Телеканал 1+1
Language : Ukrainian
Service kind : Complete Main
Default : Yes
Forced : No

Audio #2
ID : 3
Format : AC-3
Format/Info : Audio Coding 3
Codec ID : A_AC3
Duration : 2 h 13 min
Bit rate mode : Constant
Bit rate : 192 kb/s
Channel(s) : 2 channels
Channel positions : Front: L R
Sampling rate : 48.0 kHz
Frame rate : 31.250 FPS (1536 SPF)
Bit depth : 16 bits
Compression mode : Lossy
Delay relative to video : 2 s 0 ms
Stream size : 184 MiB (3%)
Title : Багатоголосий | Телеканал ICTV
Language : Ukrainian
Service kind : Complete Main
Default : No
Forced : No

Audio #3
ID : 4
Format :
Format/Info : Advanced Audio Codec
Format profile : LC
Codec ID : A_AAC-2
Duration : 2 h 13 min
Bit rate : 224 kb/s
Channel(s) : 6 channels
Channel positions : Front: L C R, Side: L R, LFE
Sampling rate : 48.0 kHz
Frame rate : 46.875 FPS (1024 SPF)
Compression mode : Lossy
Stream size : 214 MiB (3%)
Language : English
Default : No
Forced : No

Text
ID : 5
Format : UTF-8
Codec ID : S_TEXT/UTF8
Codec ID/Info : UTF-8 Plain Text
Duration : 2 h 5 min
Bit rate : 45 b/s
Count of elements : 1058
Stream size : 41.5 KiB (0%)
Language : English
Default : No
Forced : No

Menu
00:00:00.000 : en:00:00:00.000
00:06:18.044 : en:00:06:18.044
00:13:31.435 : en:00:13:31.435
00:20:32.981 : en:00:20:32.981
00:30:24.656 : en:00:30:24.656
00:36:30.730 : en:00:36:30.730
00:46:05.512 : en:00:46:05.512
00:52:31.565 : en:00:52:31.565
00:59:46.249 : en:00:59:46.249
01:05:41.479 : en:01:05:41.479
01:10:58.796 : en:01:10:58.796
01:21:54.367 : en:01:21:54.367
01:30:06.359 : en:01:30:06.359
01:35:03.197 : en:01:35:03.197
01:40:59.303 : en:01:40:59.303
01:47:01.039 : en:01:47:01.039
01:53:29.594 : en:01:53:29.594
01:59:50.850 : en:01:59:50.850
02:13:45.809 : en:02:13:45.809
Скріншоти



Джерело:
Особиста оцінка: 0 - не дивився


ЗАЛИШАЙТЕСЬ ЯКОМОГА ДОВШЕ НА РОЗДАЧІ!
ЗАВАНТАЖИВ САМ - ДАЙ ЗАВАНТАЖИТИ ІНШИМ


Срібний реліз (на рейтинг впливає 50% завантаженого)
 Трекер:    Зареєстрований   

Завантажити / скачати фільм українською



відео для новачків



 Зареєстрований:   2018-07-11 11:40
 Розмір:   7.13 GB 
 Оцінка фільму:   8.7/10 (Голосів: 7)
   
Інші релізи
   Ловець снів / Dreamcatcher (2003) Remux 1080p 2xUkr/Eng | sub Eng staf777  4 / 0   31.86 GB   2018-01-17 19:34 
   Ловець снів / Dreamcatcher (2003) AVC 2xUkr/Eng | sub Eng vovikmar  1 / 0   2.61 GB   2017-07-15 15:34 
   Ловець снів / Dreamcatcher (2003) 2xUkr/Eng Arsenfpu  5 / 0   2.37 GB   2016-01-01 21:24 
   Ловець снів / Dreamcatcher (2003) 720p 2xUkr/Eng | sub Eng NeetScrool  2 / 0   4.3 GB   2014-02-05 22:11 
Virake 
Localize Team
Localize Team


З нами з: 07.07.09
Востаннє: 26.09.20
Повідомлень: 7046

2018-07-11 12:57  
кодек не треба вказувати в заголовку.
Істота 
Забанено
Забанено


З нами з: 24.06.18
Востаннє: 11.07.18
Повідомлень: 34

2018-07-11 12:58  
Virake
У всьому є своя мораль, потрібно тільки вміти її знайти.

Strider477 
Свій


З нами з: 29.10.11
Востаннє: 26.09.20
Повідомлень: 56

2019-01-22 22:08  
Роздайте, хто-небудь, будь ласка
-Star-Lord- 
VIP


З нами з: 09.08.18
Востаннє: 26.09.20
Повідомлень: 2003

2019-01-22 23:31  
Strider477
Став на роздачу.

Strider477 
Свій


З нами з: 29.10.11
Востаннє: 26.09.20
Повідомлень: 56

2019-01-22 23:40  
Дякую! Тепер я також буду роздавати, поки інет не вимкнуть)
-Star-Lord- 
VIP


З нами з: 09.08.18
Востаннє: 26.09.20
Повідомлень: 2003

2019-01-22 23:47  
Strider477
На здоров'я!)

Ваш часовий пояс: GMT + 2 Години

Нова тема   Відповісти