Райське озеро / Eden Lake (2008) 1080p H.265 Ukr/Eng | sub Eng

Нові коментарі

Нова тема   Відповісти
Автор Повідомлення
ukr_anonymous 
Попереджень: 1
Попереджень: 1 


З нами з: 16.04.18
Востаннє: 16.12.18
Повідомлень: 231

2018-07-11 09:22  
Райське озеро / Eden Lake (2008) 1080p H.265 Ukr/Eng | sub Eng

Райське озеро / Eden Lake (2008) 1080p H.265 Ukr/Eng | sub Eng


Жанр: жахи, трилер, кримінальний
Країна: Велика Британія



Кінокомпанія: Rollercoaster Films, Aramid Entertainment Fund
Режисер: Джеймс Воткінс
Актори: Келлі Райллі, Майкл Фассбендер, Тара Елліс, Джек О’Коннелл, Фінн Аткінс, Джумейн Хантер, Томас Тургус, Джеймс Берроуз, Томас Гілл, Лоррейн Брюс

Сюжет:
Молода парочка їде за місто, щоб провести романтичний вікенд на березі Райського озера далеко від людей, в дикому лісі. Стів і Дженні планують одружитися, прожити довго і померти в один день. Ніхто з них не думав, чим закінчиться ця поїздка.


Тривалість: 01:31:06
Якість:
Відео:
кодек: H.265 (HEVC)
розмір кадру: 1920 х 816
бітрейт: 4 999 кб/с
бітова глибина: 10 біт
Увага! Перед завантаженням переконайтесь, що ваш пристрій відтворення (та/або ПЗ) підтримує H.265 (HEVC)

Аудіо # 1:
мова: українська
переклад: двоголосий закадровий
кодек: 5.1
бітрейт: 448 кб/с

Аудіо # 2:
мова: англійська
переклад: оригінал
кодек: AАС 5.1
бітрейт: 481 кб/с

Субтитри # 1:
мова: англійська
тип: програмні (м'які)
формат: *.srt
Info
General
Unique ID : 128557562041415223057056797710406095182 (0x60B7492C3D6DB4036E587E905273914E)
Complete name : E:\video\Eden Lake (2008) 1080p H.265 [UKR_ENG].
Format :
Format version : Version 4 / Version 2
File size : 3.77 GiB
Duration : 1 h 31 min
Overall bit rate : 5 929 kb/s
Movie name : Eden Lake (2008)
Encoded date : UTC 2018-07-08 15:07:01
Writing application : v22.0.0 ('At The End Of The World') 64-bit
Writing library : libebml v1.3.5 + v1.4.8
Cover : Yes
Attachments : Cover.jpg

Video
ID : 1
Format : HEVC
Format/Info : High Efficiency Video Coding
Format profile : Main [email protected]@Main
Codec ID : V_MPEGH/ISO/HEVC
Duration : 1 h 31 min
Bit rate : 4 999 kb/s
Width : 1 920 pixels
Height : 816 pixels
Display aspect ratio : 2.35:1
Frame rate mode : Constant
Frame rate : 24.000 FPS
Color space : YUV
Chroma subsampling : 4:2:0
Bit depth : 10 bits
Bits/(Pixel*Frame) : 0.133
Stream size : 3.18 GiB (84%)
Writing library : x265 2.5+22-8db95a1da9f8:[Windows][GCC 7.1.0][64 bit] 10bit
Encoding settings : cpuid=1173503 / frame-threads=3 / numa-pools=8 / wpp / no-pmode / no-pme / no-psnr / no-ssim / log-level=2 / input-csp=1 / input-res=1920x816 / interlace=0 / total-frames=131196 / level-idc=0 / high-tier=1 / uhd-bd=0 / ref=4 / no-allow-non-conformance / no-repeat-headers / annexb / no-aud / no-hrd / info / hash=0 / no-temporal-layers / open-gop / min-keyint=24 / keyint=250 / bframes=4 / b-adapt=2 / b-pyramid / bframe-bias=0 / rc-lookahead=25 / lookahead-slices=4 / scenecut=40 / no-intra-refresh / ctu=64 / min-cu-size=8 / rect / no-amp / max-tu-size=32 / tu-inter-depth=1 / tu-intra-depth=1 / limit-tu=0 / rdoq-level=2 / dynamic-rd=0.00 / no-ssim-rd / signhide / no-tskip / nr-intra=0 / nr-inter=0 / no-constrained-intra / strong-intra-smoothing / max-merge=3 / limit-refs=3 / limit-modes / me=3 / subme=3 / merange=57 / temporal-mvp / weightp / no-weightb / no-analyze-src-pics / deblock=0:0 / sao / no-sao-non-deblock / rd=4 / no-early-skip / rskip / no-fast-intra / no-tskip-fast / no-cu-lossless / no-b-intra / no-splitrd-skip / rdpenalty=0 / psy-rd=2.00 / psy-rdoq=1.00 / no-rd-refine / analysis-reuse-mode=0 / no-lossless / cbqpoffs=0 / crqpoffs=0 / rc=abr / bitrate=5000 / qcomp=0.60 / qpstep=4 / stats-write=0 / stats-read=2 / cplxblur=20.0 / qblur=0.5 / ipratio=1.40 / pbratio=1.30 / aq-mode=3 / aq-strength=1.00 / cutree / zone-count=0 / no-strict-cbr / qg-size=32 / no-rc-grain / qpmax=69 / qpmin=0 / no-const-vbv / sar=0 / overscan=0 / videoformat=5 / range=0 / colorprim=2 / transfer=2 / colormatrix=2 / chromaloc=0 / display-window=0 / max-cll=0,0 / min-luma=0 / max-luma=1023 / log2-max-poc-lsb=8 / vui-timing-info / vui-hrd-info / slices=1 / opt-qp-pps / opt-ref-list-length-pps / no-multi-pass-opt-rps / scenecut-bias=0.05 / no-opt-cu-delta-qp / no-aq-motion / no-hdr / no-hdr-opt / no-dhdr10-opt / analysis-reuse-level=5 / scale-factor=0 / refine-intra=0 / refine-inter=0 / refine-mv=0 / no-limit-sao / ctu-info=0
Default : Yes
Forced : No

Audio #1
ID : 2
Format : AC-3
Format/Info : Audio Coding 3
Codec ID : A_AC3
Duration : 1 h 30 min
Bit rate mode : Constant
Bit rate : 448 kb/s
Channel(s) : 6 channels
Channel positions : Front: L C R, Side: L R, LFE
Sampling rate : 48.0 kHz
Frame rate : 31.250 FPS (1536 SPF)
Bit depth : 16 bits
Compression mode : Lossy
Delay relative to video : 10 s 500 ms
Stream size : 291 MiB (8%)
Title : 1+1
Language : Ukrainian
Service kind : Complete Main
Default : Yes
Forced : No

Audio #2
ID : 3
Format :
Format/Info : Advanced Audio Codec
Format profile : LC
Codec ID : A_AAC-2
Duration : 1 h 31 min
Bit rate : 481 kb/s
Channel(s) : 6 channels
Channel positions : Front: L C R, Side: L R, LFE
Sampling rate : 48.0 kHz
Frame rate : 46.875 FPS (1024 SPF)
Compression mode : Lossy
Delay relative to video : 20 ms
Stream size : 314 MiB (8%)
Title : Original
Language : English
Default : No
Forced : No

Text
ID : 4
Format : UTF-8
Codec ID : S_TEXT/UTF8
Codec ID/Info : UTF-8 Plain Text
Duration : 1 h 24 min
Bit rate : 30 b/s
Count of elements : 677
Stream size : 19.2 KiB (0%)
Language : English
Default : No
Forced : No

Menu
00:00:00.000 : en:Chapter 01
00:06:59.208 : en:Chapter 02
00:16:49.000 : en:Chapter 03
00:27:29.333 : en:Chapter 04
00:36:30.208 : en:Chapter 05
00:45:50.875 : en:Chapter 06
00:56:13.791 : en:Chapter 07
01:03:02.041 : en:Chapter 08
01:12:42.916 : en:Chapter 09
01:21:04.708 : en:Chapter 10
01:26:40.541 : en:Chapter 11
Скріншоти



Джерело:
Особиста оцінка: 10 - без зайвих вагань рекомендую всім!


ЗАЛИШАЙТЕСЬ ЯКОМОГА ДОВШЕ НА РОЗДАЧІ!
ЗАВАНТАЖИВ САМ - ДАЙ ЗАВАНТАЖИТИ ІНШИМ


 Трекер:    Зареєстрований   

Завантажити / скачати фільм українською



відео для новачків



 Зареєстрований:   2018-07-11 09:22
 Розмір:   3.77 GB 
 Оцінка фільму:   9.4/10 (Голосів: 5)
   
Інші релізи
   Райське озеро / Eden Lake (2008) 1080p Ukr/Eng | Sub Eng staf777  2 / 0   9.54 GB   2018-09-09 21:40 
   Райське озеро / Eden Lake (2008) Remux 1080p Ukr/Eng | Sub Eng IronBee  1 / 0   14.14 GB   2017-08-05 09:10 
   Райське озеро / Eden Lake (2008) Ukr/Eng Arsenfpu  5 / 0   1.58 GB   2017-07-31 17:01 
   Райське озеро / Eden Lake (2008) Remux 1080p Ukr/Eng | Sub Eng staf777  1 / 1   14.3 GB   2017-02-17 13:26 
   Райське озеро / Eden Lake (2008) 720p Ukr/Eng | sub Eng pykaaaa  0 / 0   4.64 GB   2012-04-29 21:52 
   Райське озеро / Eden Lake (2008) Ukr/Eng | sub Eng JACKUS  4 / 0   1.74 GB   2011-03-21 00:40 
Maters 
VIP


З нами з: 27.03.12
Востаннє: 18.12.18
Повідомлень: 1571

2018-07-11 17:10  
ukr_anonymous написано:
10 - без зайвих вагань рекомендую всім!

серйозно?
чи це вже просто по шаблону оцінка 10?
Як на мене, то фільм лажовий!

ukr_anonymous 
Попереджень: 1
Попереджень: 1 


З нами з: 16.04.18
Востаннє: 16.12.18
Повідомлень: 231

2018-07-11 18:11  
Maters написано:
серйозно?

Так, серйозно! А чим він Вам не сподобався?

Maters 
VIP


З нами з: 27.03.12
Востаннє: 18.12.18
Повідомлень: 1571

2018-07-11 20:14  
ukr_anonymous
На кожному кроці зрозуміло, що буде далі. ГГ поводяться гірше дітей.
Наприклад: в чувака малі засранці насрали під носом, обізвали 100 разів, показували піц..ка його жінці, врешті вкрали і побили машину, ледь не вбили його, а він як випадково пса зарізав, то сказав, що сорі, я не хотів..... ну блііііін ...
Та я б там таких розгонів наробив, що ті малі б втікали і всирались по дорозі.

От надивляться малі пістони такої дурні і потім вчителів в школі нах..р посилають.

hetzendorf 
Попереджень: 1
Попереджень: 1 


З нами з: 23.07.15
Востаннє: 19.12.18
Повідомлень: 1595

2018-09-11 23:23  
Ваш часовий пояс: GMT + 2 Години

Нова тема   Відповісти