Я початок / I Origins (2014) 720p Ukr/Eng | sub Ukr/Eng

Нові коментарі

Нова тема   Відповісти
Автор Повідомлення
staf777 
Відео Гуртом - підтримка та поширення
Відео Гуртом - підтримка та поширення


З нами з: 16.11.16
Востаннє: 24.09.20
Повідомлень: 4034

2018-07-10 22:59  
Я початок / I Origins (2014) 720p Ukr/Eng | sub Ukr/Eng

Я початок / I Origins (2014) 720p Ukr/Eng | sub Ukr/Eng


Жанр: фантастика, драма
Країна: США



Кінокомпанія: Bersin Pictures, Penny Jane Films, Verisimilitude, WeWork Studio
Режисер: Майк Кехілл
Актори: Майкл Пітт, Стівен Ян, Астрід Берже-фризбі, Бріт Марлінг, Доріен Маклогі, Kashish, Кара Сеймур, Вільям Мапотер

Сюжет:
Молодого і перспективного мікробіолога всюди переслідує цифра "11". Він не впираючись слідує за нею і вона приводить його до молодої дівчини в яку наш герой шалено закохується. Дівчина відкриває йому світ зовсім в іншому ракурсі і для нього її очі сьогодення "дзеркало душі". Але дівчина вмирає. Він занурюється в роботу, разом зі своєю помічницею, робить неймовірне відкриття, яке змінює розуміння всього зародження життя людей і це відкриття може змінити весь світ...


Тривалість: 01:47:34
Якість: 720p
Відео:
кодек:
розмір кадру: 1280x536
бітрейт: 4306 кб/с

Аудіо # 1:
мова: українська
переклад: багатоголосий закадровий
кодек: 2.0
бітрейт: 192 кб/с

Аудіо # 2:
мова: англійська
переклад: оригінал
кодек: -ES 7.1
бітрейт: 1509 кб/с

Джерело озвучення:


Субтитри #1:
мова: українська
тип: програмні (м'які)
формат: *.srt

Субтитри #2-3:
мова: англійська
тип: програмні (м'які)
формат: *.srt
Info
General
Unique ID : 158723335501786228104187615471596459359 (0x776900A1FA6B41A5D7434FEF63FFD55F)
Complete name : D:\Майбутні релізи\ I Origins (2014) 720p [UKR_ENG] [Hurtom].
Format :
Format version : Version 4 / Version 2
File size : 4.52 GiB
Duration : 1 h 47 min
Overall bit rate : 6 010 kb/s
Movie name : I Origins (2014) 720p [UKR_ENG] [Hurtom]
Encoded date : UTC 2018-07-11 07:23:56
Writing application : v24.0.0 ('Beyond The Pale') 64-bit
Writing library : libebml v1.3.6 + v1.4.9
Cover : Yes
Attachments : cover.jpg

Video
ID : 1
Format : AVC
Format/Info : Advanced Video Codec
Format profile : [email protected]
Format settings : CABAC / 5 Ref Frames
Format settings, CABAC : Yes
Format settings, ReFrames : 5 frames
Codec ID : V_MPEG4/ISO/AVC
Duration : 1 h 47 min
Bit rate : 4 306 kb/s
Width : 1 280 pixels
Height : 536 pixels
Display aspect ratio : 2.40:1
Frame rate mode : Constant
Frame rate : 23.976 (24000/1001) FPS
Color space : YUV
Chroma subsampling : 4:2:0
Bit depth : 8 bits
Scan type : Progressive
Bits/(Pixel*Frame) : 0.262
Stream size : 3.24 GiB (72%)
Title : _I.Origins.2014..720p
Writing library : core 142 r2491 24e4fed
Encoding settings : cabac=1 / ref=5 / deblock=1:-3:-3 / analyse=0x3:0x113 / me=umh / subme=8 / psy=1 / psy_rd=1.00:0.00 / mixed_ref=1 / me_range=16 / chroma_me=1 / trellis=1 / 8x8dct=1 / cqm=0 / deadzone=21,11 / fast_pskip=1 / chroma_qp_offset=-2 / threads=18 / lookahead_threads=3 / sliced_threads=0 / nr=0 / decimate=1 / interlaced=0 / bluray_compat=0 / constrained_intra=0 / bframes=3 / b_pyramid=2 / b_adapt=2 / b_bias=0 / direct=3 / weightb=1 / open_gop=0 / weightp=2 / keyint=240 / keyint_min=24 / scenecut=40 / intra_refresh=0 / rc_lookahead=50 / rc=2pass / mbtree=1 / bitrate=4306 / ratetol=1.0 / qcomp=0.60 / qpmin=0 / qpmax=69 / qpstep=4 / cplxblur=20.0 / qblur=0.5 / ip_ratio=1.40 / aq=1:1.00
Language : English
Default : Yes
Forced : No

Audio #1
ID : 2
Format : AC-3
Format/Info : Audio Coding 3
Codec ID : A_AC3
Duration : 1 h 47 min
Bit rate mode : Constant
Bit rate : 192 kb/s
Channel(s) : 2 channels
Channel positions : Front: L R
Sampling rate : 48.0 kHz
Frame rate : 31.250 FPS (1536 SPF)
Bit depth : 16 bits
Compression mode : Lossy
Stream size : 148 MiB (3%)
Title : [UA-MVO-1+1]
Language : Ukrainian
Service kind : Complete Main
Default : Yes
Forced : Yes

Audio #2
ID : 3
Format :
Format/Info : Digital Theater Systems
Format profile : ES Matrix / Core
Codec ID : A_DTS
Duration : 1 h 47 min
Bit rate mode : Constant
Bit rate : 1 509 kb/s
Channel(s) : 7 channels / 6 channels
Channel positions : Front: L C R, Side: L R, Back: C, LFE / Front: L C R, Side: L R, LFE
Sampling rate : 48.0 kHz
Frame rate : 93.750 FPS (512 SPF)
Bit depth : 24 bits
Compression mode : Lossy
Stream size : 1.13 GiB (25%)
Title : -1509 kbps
Language : English
Default : No
Forced : No

Text #1
ID : 4
Format : UTF-8
Codec ID : S_TEXT/UTF8
Codec ID/Info : UTF-8 Plain Text
Duration : 1 h 46 min
Bit rate : 77 b/s
Count of elements : 1172
Stream size : 60.3 KiB (0%)
Language : Ukrainian
Default : No
Forced : No

Text #2
ID : 5
Format : UTF-8
Codec ID : S_TEXT/UTF8
Codec ID/Info : UTF-8 Plain Text
Duration : 1 h 46 min
Bit rate : 53 b/s
Count of elements : 1511
Stream size : 41.4 KiB (0%)
Title : SDH
Language : English
Default : No
Forced : No

Text #3
ID : 6
Format : UTF-8
Codec ID : S_TEXT/UTF8
Codec ID/Info : UTF-8 Plain Text
Duration : 1 h 46 min
Bit rate : 47 b/s
Count of elements : 1327
Stream size : 36.7 KiB (0%)
Language : English
Default : No
Forced : No

Menu
00:00:00.000 : en:00:00:00.000
00:02:40.619 : en:00:02:40.619
00:05:32.707 : en:00:05:32.707
00:07:23.693 : en:00:07:23.693
00:12:35.505 : en:00:12:35.505
00:13:52.206 : en:00:13:52.206
00:16:43.252 : en:00:16:43.252
00:19:00.973 : en:00:19:00.973
00:21:32.666 : en:00:21:32.666
00:25:36.535 : en:00:25:36.535
00:29:38.026 : en:00:29:38.026
00:32:51.219 : en:00:32:51.219
00:36:25.225 : en:00:36:25.225
00:42:30.131 : en:00:42:30.131
00:46:37.920 : en:00:46:37.920
00:50:51.048 : en:00:50:51.048
00:54:16.295 : en:00:54:16.295
00:58:26.336 : en:00:58:26.336
01:02:26.368 : en:01:02:26.368
01:05:25.755 : en:01:05:25.755
01:07:49.357 : en:01:07:49.357
01:12:53.327 : en:01:12:53.327
01:16:32.087 : en:01:16:32.087
01:18:40.007 : en:01:18:40.007
01:21:18.916 : en:01:21:18.916
01:24:00.244 : en:01:24:00.244
01:26:06.703 : en:01:26:06.703
01:27:52.350 : en:01:27:52.350
01:32:45.518 : en:01:32:45.518
01:37:39.604 : en:01:37:39.604
01:39:03.396 : en:01:39:03.396
01:42:23.346 : en:01:42:23.346
Скріншоти



За українську доріжку дякуємо панам Bohdan237 та drop_plz,
за українські субтитри подяка пану AngryBirdsUA,
також особисто дякую пану IronBee за допомогу у створенні реліза


Джерело: &
Особиста оцінка: 8 - мені сподобалося


 Трекер:    Зареєстрований   

Завантажити / скачати фільм українською



відео для новачків



 Зареєстрований:   2018-07-11 10:41
 Розмір:   4.52 GB 
 Оцінка фільму:   7.1/10 (Голосів: 16)
   
Інші релізи
   Я початок / I Origins (2014) Remux 1080p Ukr/Eng | sub Ukr/Eng staf777  3 / 0   25.99 GB   2020-01-11 17:40 
   Я початок / I Origins (2014) 1080p H.265 Ukr/Eng | Sub Ukr/Eng -Star-Lord-  5 / 0   6.68 GB   2018-09-25 11:08 
   Я початок / I Origins (2014) 1080p Ukr/Eng | sub Ukr/Eng IronBee  3 / 0   11.88 GB   2018-07-10 20:38 
   Я початок / I Origins (2014) Ukr/Eng drop_plz  7 / 0   1.82 GB   2018-06-19 17:36 
   Я початок / I Origins (2014) AVC Ukr/Eng | Sub Ukr/Eng drop_plz  7 / 0   2.46 GB   2018-06-19 17:30 
   Я початок / I Origins (2014) AVC Eng | sub Ukr AngryBirdsUA  2 / 0   1.54 GB   2014-12-12 17:25 
bot 
робот


З нами з: 30.09.07
Востаннє: 26.05.05
Повідомлень: 25602

2018-07-11 10:41  
Тему перенесено з Анонси релізів до форуму Фільми в HD


staf777

Ваш часовий пояс: GMT + 2 Години

Нова тема   Відповісти