Закоханий Шекспір / Shakespeare in Love (1998) Ukr/Eng

Нові коментарі

Нова тема   Відповісти
Автор Повідомлення
Anonymous 







2018-07-10 22:22  
Закоханий Шекспір / Shakespeare in Love (1998) Ukr/Eng

Закоханий Шекспір / Shakespeare in Love (1998) Ukr/Eng
Обкладинка



Жанр: комедія, мелодрама, драма, історичний
Країна: США, Велика Британія



7 Оскарів, 3 Золотих глобуса, 3 премії Британської кіноакадемії, 2 премії Гільдії акторів та інші нагороди
Основні нагороди - детальніше:


Оскар, 1999 рік
Переможець (7):
Найкращий фільм
Найкраща жіноча роль (Ґвінет Пелтроу)
Найкраща другорядна жіноча роль (Джуді Денч)
Найкращий сценарій
Найкращі декорації
Найкращі костюми
Найкращий саундтрек до музичного/комедійного фільму



Золотий глобус, 1999 рік
Переможець (3):
Найкращий фільм (комедія чи мюзикл)
Найкраща жіноча роль (комедія чи мюзикл) (Ґвінет Пелтроу)
Найкращий сценарій



Британська академія (BAFTA), 1999 рік
Переможець (3):
Найкращий фільм
Найкраща другорядна жіноча роль (Джуді Денч)
Найкращий монтаж



Премія Гільдії акторів, 1999 рік
Переможець (2):
Найкращий акторський склад
Найкраща жіноча роль (Ґвінет Пелтроу)



Берлінський кінофестиваль, 1999 рік
Переможець (2):
Срібний Ведмідь за значні персональні досягнення (Том Стоппард, Марк Норман)
Приз газети Berliner Morgenpost



Премія каналу MTV, 1999 рік
Переможець (1):
Найкращий поцілунок (Ґвінет Пелтроу, Джозеф Файнс)
Кінокомпанія: Bedford Falls Productions, Miramax Films, Universal Pictures
Режисер: Джон Медден / John Madden
Актори: Джозеф Файнс / Joseph Fiennes, Ґвінет Пелтроу / Gwyneth Paltrow, Джеффрі Раш / Geoffrey Rush, Бен Аффлек / Ben Affleck, Том Вілкінсон / Tom Wilkinson, Колін Ферт / Colin Firth Colin Firth , Джуді Денч / Judi Dench, Марк Вільямс / Mark Williams, Саймон Келлоу / Simon Callow, Стів О'Доннелл / Steven O'Donnell, Тім МакМуллан / Tim McMullan та інші

Сюжет:
1594 рік. Молодий драматург Вільям Шекспір переживає творчу кризу: муза покинула його, грошей немає, власник театру вимагає від автора нову п'єсу в найкоротший термін. І коли, здавалося б, у письменника не залишається жодної надії на отримання нового натхнення, в його життя вторгається сама Любов в особі чарівної аристократки Віоли. Під виглядом молодого актора дівчина наймається в трупу театру, щоб зіграти головну чоловічу роль в п'єсі «Ромео і Джульєта». Віола не тільки віддана прихильниця маестро Шекспіра, але і прекрасна актриса. Існує лише одна заковика: Віола заручена з поважним дворянином, який планує відвезти майбутню дружину в далеку англійську колонію.


Рейтинг MPAA: R - особам до 17 років обов'язкова присутність батьків або дорослого опікуна
Вікова категорія: 16+

Тривалість: 02:03:38
Якість:
Відео:
кодек:
розмір кадру: 720 x 304
бітрейт: 1872 кб/с

Аудіо # 1:
мова: українська
переклад: багатоголосий закадровий | Студія 1+1
ролі озвучили: Андрій Твердак, Олександр Завальський і Лариса Руснак
кодек: 5.1
бітрейт: 320 кб/с

Аудіо # 2:
мова: англійська
переклад: оригінал
кодек: 5.1
бітрейт: 448 кб/с
Info
Код:
General
Complete name               : Shakespeare in Love (1998) [Ukr,Eng] [Hurtom].avi
Format                      : AVI
Format/Info                 : Audio Video Interleave
Format profile              : OpenDML
File size                   : 2.29 GiB
Duration                    : 2 h 3 min
Overall bit rate            : 2 658 kb/s
Movie name                  : Закоханий Шекспір / Shakespeare in Love (1998) [Ukr,Eng] [Hurtom&HQClub]
Genre                       : комедія, мелодрама, драма, історичний
Recorded date               : 10.07.2018
Writing application         : VirtualDubModUkr 1.5.10.2 (build 2542/release)
Writing library             : VirtualDubMod build 2542/release
Comment                     : https://toloka.to/t93296

Video
ID                          : 0
Format                      : MPEG-4 Visual
Format profile              : Advanced [email protected]
Format settings             : BVOP1 / Custom Matrix
Format settings, BVOP       : 1
Format settings, QPel       : No
Format settings, GMC        : No warppoints
Format settings, Matrix     : Custom
Codec ID                    :
Codec ID/Hint               :
Duration                    : 2 h 3 min
Bit rate                    : 1 872 kb/s
Width                       : 720 pixels
Height                      : 304 pixels
Display aspect ratio        : 2.35:1
Frame rate                  : 23.976 (24000/1001) FPS
Color space                 : YUV
Chroma subsampling          : 4:2:0
Bit depth                   : 8 bits
Scan type                   : Progressive
Compression mode            : Lossy
Bits/(Pixel*Frame)          : 0.357
Stream size                 : 1.62 GiB (70%)
Writing library             : 62

Audio #1
ID                          : 1
Format                      : AC-3
Format/Info                 : Audio Coding 3
Codec ID                    : 2000
Duration                    : 2 h 3 min
Bit rate mode               : Constant
Bit rate                    : 320 kb/s
Channel(s)                  : 6 channels
Channel positions           : Front: L C R, Side: L R, LFE
Sampling rate               : 48.0 kHz
Frame rate                  : 31.250 FPS (1536 SPF)
Bit depth                   : 16 bits
Compression mode            : Lossy
Stream size                 : 283 MiB (12%)
Alignment                   : Split accross interleaves
Interleave, duration        : 42  ms (1.00 video frame)
Interleave, preload duratio : 500  ms
Title                       : UKR DVO [1+1]
Service kind                : Complete Main

Audio #2
ID                          : 2
Format                      : AC-3
Format/Info                 : Audio Coding 3
Codec ID                    : 2000
Duration                    : 2 h 3 min
Bit rate mode               : Constant
Bit rate                    : 448 kb/s
Channel(s)                  : 6 channels
Channel positions           : Front: L C R, Side: L R, LFE
Sampling rate               : 48.0 kHz
Frame rate                  : 31.250 FPS (1536 SPF)
Bit depth                   : 16 bits
Compression mode            : Lossy
Stream size                 : 396 MiB (17%)
Alignment                   : Split accross interleaves
Interleave, duration        : 42  ms (1.00 video frame)
Interleave, preload duratio : 500  ms
Service kind                : Complete Main




Джерело: &
Постери - Lazzarus, thefir; укр.доріжка - Maryen'а, Romario_O, синхронізація під блурей - Electroz.


Срібний реліз (на рейтинг впливає 50% завантаженого)
 Трекер:    Зареєстрований   

Завантажити / скачати фільм українською



відео для новачків



 Зареєстрований:   2018-07-10 22:50
 Розмір:   2.29 GB 
 Оцінка фільму:   10/10 (Голосів: 9)
   
Інші релізи
Ваш часовий пояс: GMT + 2 Години

Нова тема   Відповісти