Простачка / The DUFF (2015) Remux 1080p 2хUkr/Eng | Sub Eng

Нові коментарі

Нова тема   Відповісти
Автор Повідомлення
staf777 
Відео Гуртом - підтримка та поширення
Відео Гуртом - підтримка та поширення


З нами з: 16.11.16
Востаннє: 21.07.19
Повідомлень: 2676

2018-07-10 20:04  
Простачка / The DUFF (2015) Remux 1080p 2хUkr/Eng | Sub Eng



Альтернативні постери від Lazzarus'а та lpershyi:




«Або ви знаєте її, або у вас є така ... або ти сама»



Жанр: комедія
Країна: США



Кінокомпанія: CBS Films, Vast Entertainment, Wonderland Sound and Vision
Режисер: Ері Сандел / Ari Sandel
Актори: Белла Торн / Bella Thorne, Роббі Амелл / Robbie Amell, Мей Вітман / Mae Whitman, Еллісон Дженні / Allison Janney, Скайлер Семюелс / Skyler Samuels, Кен Жонґ / Ken Jeong, Романі Малко / Romany Malco та інші

Сюжет:
Качок, ботан, рокер, стерво – у кожній компанії є персонажі з такими прізвиськами. Б’янка Пайпер не підозрює, як її називають позаочі. Подружки списують у неї фізику і беруть її з собою на тусовки, щоб крутіше виглядати на її фоні. Шкільний плейбой Веслі Раш відкриває їй очі на правду... Як Б’янці позбавиться від ганебного статусу, стати чарівною і завоювати серце першого красеня?


Тривалість: 01:37:08
Якість: Remux 1080p

Відео:
кодек:
розмір кадру: 1920x1080
бітрейт: 21 Mб/с

Аудіо#1:
мова: українська
переклад: багатоголосий закадровий
кодек: -HD MA 5.1
бітрейт: 3362 кб/с

Аудіо#2:
мова: українська
переклад: багатоголосий закадровий
кодек: 5.1
бітрейт: 640 кб/с
примітка: кінотеатральне озвучення, як і в першій доріжці, відрізняється лише кодеком

Аудіо #3:
мова: українська
переклад: багатоголосий закадровий
кодек: 2.0
бітрейт: 192 кб/с

Аудіо # 4:
мова: англійська
переклад: оригінал
кодек: -HD MA 5.1
бітрейт: 3304 кб/с

Субтитри #1-2:
мова: англійська
тип: пререндерні
формат: *.pgs
Info

General
Unique ID : 318211436064099956700241816647865936819 (0xEF654B181550CDD4067FBE511AC32BB3)
Complete name : D:\Майбутні релізи\The DUFF (2015) Remux 1080p [2xUKR_ENG] [Hurtom].
Format :
Format version : Version 4 / Version 2
File size : 20.2 GiB
Duration : 1 h 41 min
Overall bit rate mode : Variable
Overall bit rate : 28.5 Mb/s
Movie name : The DUFF (2015) Remux 1080p [2xUKR_ENG] [Hurtom]
Encoded date : UTC 2018-07-10 19:41:38
Writing application : v24.0.0 ('Beyond The Pale') 64-bit
Writing library : libebml v1.3.6 + v1.4.9
Cover : Yes
Attachments : cover.jpg

Video
ID : 1
Format : AVC
Format/Info : Advanced Video Codec
Format profile : [email protected]
Format settings : CABAC / 4 Ref Frames
Format settings, CABAC : Yes
Format settings, ReFrames : 4 frames
Codec ID : V_MPEG4/ISO/AVC
Duration : 1 h 41 min
Bit rate mode : Variable
Bit rate : 21.0 Mb/s
Maximum bit rate : 38.0 Mb/s
Width : 1 920 pixels
Height : 1 080 pixels
Display aspect ratio : 16:9
Frame rate mode : Constant
Frame rate : 23.976 (24000/1001) FPS
Color space : YUV
Chroma subsampling : 4:2:0
Bit depth : 8 bits
Scan type : Progressive
Bits/(Pixel*Frame) : 0.422
Stream size : 14.8 GiB (74%)
Default : Yes
Forced : No

Audio #1
ID : 2
Format :
Format/Info : Digital Theater Systems
Format profile : MA / Core
Codec ID : A_DTS
Duration : 1 h 41 min
Bit rate mode : Variable / Constant
Bit rate : 3 362 kb/s / 1 509 kb/s
Channel(s) : 6 channels
Channel positions : Front: L C R, Side: L R, LFE
Sampling rate : 48.0 kHz
Frame rate : 93.750 FPS (512 SPF)
Bit depth : 24 bits
Compression mode : Lossless / Lossy
Stream size : 2.38 GiB (12%)
Title : [ HD MA]
Language : Ukrainian
Default : Yes
Forced : Yes

Audio #2
ID : 3
Format : AC-3
Format/Info : Audio Coding 3
Codec ID : A_AC3
Duration : 1 h 41 min
Bit rate mode : Constant
Bit rate : 640 kb/s
Channel(s) : 6 channels
Channel positions : Front: L C R, Side: L R, LFE
Sampling rate : 48.0 kHz
Frame rate : 31.250 FPS (1536 SPF)
Bit depth : 16 bits
Compression mode : Lossy
Stream size : 463 MiB (2%)
Title : [UA-MVO]
Language : Ukrainian
Service kind : Complete Main
Default : No
Forced : No

Audio #3
ID : 4
Format : AC-3
Format/Info : Audio Coding 3
Codec ID : A_AC3
Duration : 1 h 41 min
Bit rate mode : Constant
Bit rate : 192 kb/s
Channel(s) : 2 channels
Channel positions : Front: L R
Sampling rate : 48.0 kHz
Frame rate : 31.250 FPS (1536 SPF)
Bit depth : 16 bits
Compression mode : Lossy
Stream size : 139 MiB (1%)
Title : [UAMVO-K1]
Language : Ukrainian
Service kind : Complete Main
Default : No
Forced : No

Audio #4
ID : 5
Format :
Format/Info : Digital Theater Systems
Format profile : MA / Core
Codec ID : A_DTS
Duration : 1 h 41 min
Bit rate mode : Variable / Constant
Bit rate : 3 304 kb/s / 1 509 kb/s
Channel(s) : 6 channels
Channel positions : Front: L C R, Side: L R, LFE
Sampling rate : 48.0 kHz
Frame rate : 93.750 FPS (512 SPF)
Bit depth : 24 bits
Compression mode : Lossless / Lossy
Stream size : 2.34 GiB (12%)
Language : English
Default : No
Forced : No

Text #1
ID : 6
Format : PGS
Muxing mode : zlib
Codec ID : S_HDMV/PGS
Codec ID/Info : Picture based subtitle format used on BDs/HD-DVDs
Duration : 1 h 37 min
Bit rate : 44.2 kb/s
Count of elements : 3382
Stream size : 30.6 MiB (0%)
Language : English
Default : No
Forced : No

Text #2
ID : 7
Format : PGS
Muxing mode : zlib
Codec ID : S_HDMV/PGS
Codec ID/Info : Picture based subtitle format used on BDs/HD-DVDs
Duration : 1 h 37 min
Bit rate : 48.1 kb/s
Count of elements : 3656
Stream size : 33.5 MiB (0%)
Language : English
Default : No
Forced : No
Скріншоти







Подяка панам:
- За синхронізацію доріжки № 1 Electroz;
- За запис з К1 xslim;
- За синхронізацію доріжки з К1 Arsenfpu.


Джерело: &
Особиста оцінка: 0 - не дивився


Золотий реліз (завантажене не впливає на рейтинг)
 Трекер:    Зареєстрований   

Завантажити / скачати фільм українською



відео для новачків



 Зареєстрований:   2018-07-11 09:53
 Розмір:   20.17 GB 
 Оцінка фільму:   8.2/10 (Голосів: 5)
   
Інші релізи
   Простачка / The DUFF (2015) AVC 2xUkr/Eng Arsenfpu  6 / 0   2.14 GB   2018-07-15 12:41 
   Простачка / The DUFF (2015) 1080p 2хUkr/Eng | Sub Eng 11FrYkT  0 / 0   12.39 GB   2018-07-10 07:08 
   Простачка / The DUFF (2015) 720p 2хUkr/Eng | Sub Eng 11FrYkT  1 / 0   6.78 GB   2018-07-09 22:10 
   Простачка / The DUFF (2015) patriot2305  6 / 0   1.45 GB   2015-05-31 17:52 
bot 
робот


З нами з: 30.09.07
Востаннє: 26.05.05
Повідомлень: 21646

2018-07-11 09:53  
Тему перенесено з Анонси релізів до форуму Фільми в HD


staf777

Ваш часовий пояс: GMT + 2 Години

Нова тема   Відповісти