Імла / The Mist (2007) 1080p 2xUkr/Eng | Sub Eng

Нові коментарі

Нова тема   Відповісти
Автор Повідомлення
staf777 
Попереджень: 1
Попереджень: 1 


З нами з: 16.11.16
Востаннє: 23.09.18
Повідомлень: 1521

2018-07-10 17:29  
Імла / The Mist (2007) 1080p 2xUkr/Eng | Sub Eng

Імла / The Mist (2007) 1080p 2xUkr/Eng | Sub Eng


Жанр: трилер, жахи, фантастика
Країна: США



Кінокомпанія: Darkwoods Productions, Dimension Films
Режисер: Френк Дарабонт
Актори: Томас Джейн, Марша Гей Харден, Вільям Седлер, Натан Гембл, Алекса Давалос, Лорі Холден, Кріс Оуен, Андре Брогер, Тобі Джонс, Джеффрі ДеМанн, Бак Тейлор, Френсіс Стернхейген, Сем Вітуер

Сюжет:
Після жахливого буревію маленьке містечко огортає імла. У цій імлі копирсаються загадкові істоти, що пожирають людей. Декілька десятків городян сховалися від ворожих істот за стінами супермаркету. І тут з’ясовується, що смертельна загроза не об’єднала тих, що врятувалися, але провела між ними лінію жорсткого розділу: одні ладні віддати своїх сусідів ворогові, приносячи їх в жертву, інші – чинити опір до кінця.


Тривалість: 02:06:00
Якість: 1080p
Відео:
кодек:
розмір кадру: 1920x1036
бітрейт: 13.5 Mб/с

Аудіо # 1:
мова: українська
переклад: багатоголосий закадровий
кодек: 2.0
бітрейт: 192 кб/с

Аудіо # 2: &
мова: українська
переклад: багатоголосий закадровий
кодек: 2.0
бітрейт: 192 кб/с

Аудіо # 3:
мова: англійська
переклад: оригінал
кодек: 5.1
бітрейт: 1510 кб/с

Субтитри:
мова: англійська
тип: програмні (м'які)
формат: *.srt
Info
General
Unique ID : 3232022530115879657427458253678271554 (0x26E77038036708E45D88DB578D15C42)
Complete name : D:\Майбутні релізи\The Mist (2007) 1080p [2xUKR_ENG] [Hurtom].
Format :
Format version : Version 4 / Version 2
File size : 13.5 GiB
Duration : 2 h 5 min
Overall bit rate : 15.4 Mb/s
Movie name : The Mist (2007) 1080p [2xUKR_ENG] [Hurtom]
Encoded date : UTC 2018-07-13 14:25:40
Writing application : v24.0.0 ('Beyond The Pale') 64-bit
Writing library : libebml v1.3.6 + v1.4.9
Cover : Yes
Attachments : cover.jpg

Video
ID : 1
Format : AVC
Format/Info : Advanced Video Codec
Format profile : [email protected]
Format settings : CABAC / 4 Ref Frames
Format settings, CABAC : Yes
Format settings, ReFrames : 4 frames
Codec ID : V_MPEG4/ISO/AVC
Duration : 2 h 5 min
Bit rate : 13.5 Mb/s
Width : 1 920 pixels
Height : 1 036 pixels
Display aspect ratio : 1.85:1
Frame rate mode : Constant
Frame rate : 23.976 (24000/1001) FPS
Color space : YUV
Chroma subsampling : 4:2:0
Bit depth : 8 bits
Scan type : Progressive
Bits/(Pixel*Frame) : 0.283
Stream size : 11.9 GiB (88%)
Title : The Mist (2007) - Release for HDCLUB
Writing library : core 120 r2146 bcd41db
Encoding settings : cabac=1 / ref=4 / deblock=1:-3:-3 / analyse=0x3:0x113 / me=tesa / subme=11 / psy=1 / psy_rd=1.10:0.10 / mixed_ref=1 / me_range=64 / chroma_me=1 / trellis=2 / 8x8dct=1 / cqm=0 / deadzone=21,11 / fast_pskip=1 / chroma_qp_offset=-3 / threads=9 / sliced_threads=0 / nr=0 / decimate=1 / interlaced=0 / bluray_compat=0 / constrained_intra=0 / bframes=8 / b_pyramid=2 / b_adapt=2 / b_bias=0 / direct=1 / weightb=1 / open_gop=0 / weightp=2 / keyint=230 / keyint_min=23 / scenecut=40 / intra_refresh=0 / rc=2pass / mbtree=0 / bitrate=13500 / ratetol=1.0 / qcomp=0.60 / qpmin=0 / qpmax=69 / qpstep=4 / cplxblur=20.0 / qblur=0.5 / ip_ratio=1.40 / pb_ratio=1.30 / aq=1:1.00
Language : English
Default : Yes
Forced : No
Color range : Limited
Color primaries : BT.709
Transfer characteristics : BT.709
Matrix coefficients : BT.709

Audio #1
ID : 2
Format : AC-3
Format/Info : Audio Coding 3
Codec ID : A_AC3
Duration : 2 h 5 min
Bit rate mode : Constant
Bit rate : 192 kb/s
Channel(s) : 2 channels
Channel positions : Front: L R
Sampling rate : 48.0 kHz
Frame rate : 31.250 FPS (1536 SPF)
Bit depth : 16 bits
Compression mode : Lossy
Stream size : 173 MiB (1%)
Title : [UA-MVO-Україна]
Language : Ukrainian
Service kind : Complete Main
Default : Yes
Forced : Yes

Audio #2
ID : 3
Format : AC-3
Format/Info : Audio Coding 3
Codec ID : A_AC3
Duration : 2 h 5 min
Bit rate mode : Constant
Bit rate : 192 kb/s
Channel(s) : 2 channels
Channel positions : Front: L R
Sampling rate : 48.0 kHz
Frame rate : 31.250 FPS (1536 SPF)
Bit depth : 16 bits
Compression mode : Lossy
Stream size : 173 MiB (1%)
Title : [UA-MVO-1+1]
Language : Ukrainian
Service kind : Complete Main
Default : No
Forced : No

Audio #3
ID : 4
Format :
Format/Info : Digital Theater Systems
Codec ID : A_DTS
Duration : 2 h 5 min
Bit rate mode : Constant
Bit rate : 1 510 kb/s
Channel(s) : 6 channels
Channel positions : Front: L C R, Side: L R, LFE
Sampling rate : 48.0 kHz
Frame rate : 93.750 FPS (512 SPF)
Bit depth : 24 bits
Compression mode : Lossy
Delay relative to video : 33 ms
Stream size : 1.33 GiB (10%)
Title : 5.1 @ 1536 kbps
Language : English
Default : No
Forced : No

Text
ID : 5
Format : UTF-8
Codec ID : S_TEXT/UTF8
Codec ID/Info : UTF-8 Plain Text
Duration : 1 h 55 min
Bit rate : 57 b/s
Count of elements : 1796
Stream size : 48.5 KiB (0%)
Language : English
Default : No
Forced : No

Menu
00:00:00.000 : en: The Storm
00:06:02.654 : en: Something in the Mist
00:17:34.428 : en: Weird Noises in the Dark
00:22:14.583 : en: Norm's Demise
00:28:42.220 : en: The Price of Disbelief
00:31:46.571 : en: All we Saw Were Tentacles
00:38:59.087 : en: The End of Days
00:41:40.957 : en: No Defense Against the Will of God
00:47:43.527 : en: It's Definetely Not Supernatural
00:54:28.432 : en: They Came Out of the Smoke; Locusts Upon the Earth
01:05:58.580 : en: Faith in Humanity
01:17:13.212 : en: Trip to the Pharmacy
01:25:25.495 : en: Expiation
01:29:20.730 : en: The Arrowhead Project
01:35:28.723 : en: Escape From the Market
01:41:05.685 : en: Encounters in the Mist
01:44:07.491 : en: Hopelessness
01:57:23.787 : en: End Credits
Скріншоти



Зведення звуку: Romario_O
Джерело: &
Особиста оцінка: 8 - мені сподобалося


 Трекер:    Зареєстрований   

Завантажити / скачати фільм українською



відео для новачків



 Зареєстрований:   2018-07-13 17:53
 Розмір:   13.54 GB 
 Оцінка фільму:   10/10 (Голосів: 7)
   
Інші релізи
   Імла / The Mist (2007) Remux 1080p 2xUkr/Eng | Sub Eng IronBee  2 / 0   20.6 GB   2018-07-15 23:03 
   Імла / The Mist (2007) AVC 2xUkr/Eng | Sub Eng staf777  5 / 0   3.65 GB   2018-07-13 20:18 
   Імла / The Mist (2007) 2xUkr taraskill1  11 / 0   2.19 GB   2016-06-12 12:55 
   Імла / The Mist (2007) 720p Ukr/Eng | Sub Ukr/Eng SuperContik  5 / 0   6.89 GB   2011-02-14 00:46 
Cayman1993 
Новенький


З нами з: 04.01.13
Востаннє: 21.09.18
Повідомлень: 12

2018-07-11 16:12  
"ніколи не робіть поспішних висновків" хто в темі
13begemotow 
Частий відвідувач


З нами з: 24.09.14
Востаннє: 05.09.18
Повідомлень: 32

2018-07-13 14:07  
хороший фільм! З задоволенням передивився б!
bot 
робот


З нами з: 30.09.07
Востаннє: 26.05.05
Повідомлень: 19817

2018-07-13 17:53  
Тему перенесено з Анонси релізів до форуму Фільми в HD


staf777

Ваш часовий пояс: GMT + 2 Години

Нова тема   Відповісти