Острів собак / Isle of Dogs (2018) Remux 1080p Ukr/Eng | Sub Ukr/Eng

Нові коментарі

Нова тема   Відповісти
Автор Повідомлення
staf777 
Попереджень: 1
Попереджень: 1 


З нами з: 16.11.16
Востаннє: 14.11.18
Повідомлень: 1743

2018-07-10 08:00  
Острів собак / Isle of Dogs (2018) Remux 1080p Ukr/Eng | Sub Ukr/Eng

Острів собак / Isle of Dogs (2018) Remux 1080p Ukr/Eng | Sub Ukr/Eng


Жанр: анімація, фентезі, драма, комедія, пригодницький

Жанр: анімація, драма, комедія, пригоди
Країна: США, Німеччина



Кінокомпанія: 20th Century Fox, Indian Paintbrush
Режисер: Вес Андерсон
Актори: Браян Кренстон, Кою Ранкін, Едвард Нортон, Білл Мюррей, Джеф Ґолдблум, Грета Гервіг, Френсіс МакДорманд, Скарлет Йоханссон, Гарві Кейтель, Тільда Суінтон та інші

Сюжет:
Події розгортаються у Японії у недалекому майбутньому. Острови перенаселені, тож людям дедалі складніше уживатися поряд. Уряд вирішує, що від хатніх улюбленців потрібно відмовитися, аби лишилось місце людям. Усіх собак вивозять на острів, до країв заповнений сміттям. На велетенському звалищі, без їжі та гідного догляду, живуть тисячі тварин. Дванадцятирічний хлопчик Атарі готовий на все, аби повернути собі найкращого друга – вірного пса. Хлопчина викрадає старезний літак та дістається острова. Тут, у компанії п'ятьох розумних та активних собак, він і шукатиме свого друга.


Тривалість: 01:41:08
Якість: Remux 1080p
Відео:
кодек:
розмір кадру: 1920x1080
бітрейт: 26,8 Mб/с

Аудіо # 1:
мова: українська
переклад: професійний дубльований | студія Postmodern
кодек: 5.1
бітрейт: 448 кб/с

Аудіо # 2:
мова: англійська
переклад: оригінал
кодек: -HD MA 5.1
бітрейт: 3448 кб/с

Субтитри # 1: (форсовані - лише на неозвучені написи та діалоги)
мова: українська
тип: програмні (м'які)
формат: *.srt

Субтитри # 2: (повні)
мова: українська
тип: пререндерні
формат: pgs

Субтитри # 3-4:
мова: англійська
тип: програмні (м'які)
формат: *.srt
Info
General
Unique ID : 12514892105021645649864120652513979912 (0x96A47D1D5DADAD46F7C9DA95AD0AE08)
Complete name : D:\Мультфільми в HD\Isle of Dogs (2018) Remux 1080p [UKR_ENG] [Hurtom].
Format :
Format version : Version 4 / Version 2
File size : 21.7 GiB
Duration : 1 h 41 min
Overall bit rate mode : Variable
Overall bit rate : 30.7 Mb/s
Movie name : Isle of Dogs (2018) Remux 1080p [UKR_ENG] [Hurtom]
Encoded date : UTC 2018-09-01 16:20:52
Writing application : v24.0.0 ('Beyond The Pale') 64-bit
Writing library : libebml v1.3.6 + v1.4.9
Cover : Yes
Attachments : cover.jpg

Video
ID : 1
Format : AVC
Format/Info : Advanced Video Codec
Format profile : [email protected]
Format settings : CABAC / 4 Ref Frames
Format settings, CABAC : Yes
Format settings, ReFrames : 4 frames
Codec ID : V_MPEG4/ISO/AVC
Duration : 1 h 41 min
Bit rate mode : Variable
Bit rate : 26.8 Mb/s
Maximum bit rate : 32.5 Mb/s
Width : 1 920 pixels
Height : 1 080 pixels
Display aspect ratio : 16:9
Frame rate mode : Constant
Frame rate : 23.976 (24000/1001) FPS
Color space : YUV
Chroma subsampling : 4:2:0
Bit depth : 8 bits
Scan type : Progressive
Bits/(Pixel*Frame) : 0.538
Stream size : 18.9 GiB (87%)
Language : English
Default : Yes
Forced : No

Audio #1
ID : 2
Format : AC-3
Format/Info : Audio Coding 3
Codec ID : A_AC3
Duration : 1 h 41 min
Bit rate mode : Constant
Bit rate : 448 kb/s
Channel(s) : 6 channels
Channel positions : Front: L C R, Side: L R, LFE
Sampling rate : 48.0 kHz
Frame rate : 31.250 FPS (1536 SPF)
Bit depth : 16 bits
Compression mode : Lossy
Stream size : 324 MiB (1%)
Title : [UA-DUB- Postmodern]
Language : Ukrainian
Service kind : Complete Main
Default : Yes
Forced : Yes

Audio #2
ID : 3
Format :
Format/Info : Digital Theater Systems
Format profile : MA / Core
Codec ID : A_DTS
Duration : 1 h 41 min
Bit rate mode : Variable / Constant
Bit rate : 3 448 kb/s / 1 509 kb/s
Channel(s) : 6 channels
Channel positions : Front: L C R, Side: L R, LFE
Sampling rate : 48.0 kHz
Frame rate : 93.750 FPS (512 SPF)
Bit depth : 24 bits
Compression mode : Lossless / Lossy
Stream size : 2.44 GiB (11%)
Title : Original
Language : English
Default : No
Forced : No

Text #1
ID : 4
Format : UTF-8
Codec ID : S_TEXT/UTF8
Codec ID/Info : UTF-8 Plain Text
Duration : 1 h 32 min
Bit rate : 4 b/s
Count of elements : 74
Stream size : 2.81 KiB (0%)
Language : Ukrainian
Default : Yes
Forced : Yes

Text #2
ID : 5
Format : PGS
Muxing mode : zlib
Codec ID : S_HDMV/PGS
Codec ID/Info : Picture based subtitle format used on BDs/HD-DVDs
Duration : 1 h 41 min
Bit rate : 19.5 kb/s
Count of elements : 2172
Stream size : 14.1 MiB (0%)
Language : Ukrainian
Default : No
Forced : No

Text #3
ID : 6
Format : UTF-8
Codec ID : S_TEXT/UTF8
Codec ID/Info : UTF-8 Plain Text
Duration : 1 h 33 min
Bit rate : 56 b/s
Count of elements : 1203
Stream size : 38.8 KiB (0%)
Title : Full
Language : English
Default : No
Forced : No

Text #4
ID : 7
Format : UTF-8
Codec ID : S_TEXT/UTF8
Codec ID/Info : UTF-8 Plain Text
Duration : 1 h 35 min
Bit rate : 63 b/s
Count of elements : 1429
Stream size : 44.4 KiB (0%)
Title : SDH
Language : English
Default : No
Forced : No

Menu
00:00:00.000 : en:00:00:00.000
00:03:36.049 : en:00:03:36.049
00:07:53.181 : en:00:07:53.181
00:13:41.195 : en:00:13:41.195
00:16:39.373 : en:00:16:39.373
00:20:45.035 : en:00:20:45.035
00:26:04.312 : en:00:26:04.312
00:29:27.265 : en:00:29:27.265
00:35:58.573 : en:00:35:58.573
00:40:36.475 : en:00:40:36.475
00:44:46.433 : en:00:44:46.433
00:48:15.100 : en:00:48:15.100
00:52:07.499 : en:00:52:07.499
00:56:06.780 : en:00:56:06.780
00:59:07.085 : en:00:59:07.085
01:03:17.710 : en:01:03:17.710
01:08:45.079 : en:01:08:45.079
01:14:03.230 : en:01:14:03.230
01:16:34.965 : en:01:16:34.965
01:20:46.925 : en:01:20:46.925
01:23:36.219 : en:01:23:36.219
01:30:09.737 : en:01:30:09.737
01:33:02.493 : en:01:33:02.493
01:35:41.235 : en:01:35:41.235
Скріншоти



Дякую пану igor911 за допомогу.
Джерело: &
Особиста оцінка: 0 - не дивився


Золотий реліз (завантажене не впливає на рейтинг)
 Трекер:    Зареєстрований   

Завантажити / скачати мультфільм українською



відео для новачків



 Зареєстрований:   2018-09-01 18:39
 Розмір:   21.67 GB 
 Оцінка мультфільму:   8.9/10 (Голосів: 10)
   
Інші релізи
   Острів собак / Isle of Dogs (2018) AVC Ukr/Eng | Sub Ukr/Eng uafilm.tv  31 / 0   1.53 GB   2018-09-02 09:37 
   Острів собак / Isle of Dogs (2018) 720p Ukr/Eng | Sub Eng 11FrYkT  13 / 0   3.35 GB   2018-09-02 09:28 
   Острів собак / Isle of Dogs (2018) Ukr/Eng | Sub Ukr/Eng igor911  4 / 0   2.27 GB   2018-09-02 08:08 
   Острів собак / Isle of Dogs (2018) 1080p H.265 Ukr/Eng | Sub Ukr/Eng ukr_anonymous  6 / 0   3.64 GB   2018-09-01 22:05 
   Острів собак / Isle of Dogs (2018) 1080p Ukr/Eng | Sub Ukr/Eng staf777  8 / 0   7.31 GB   2018-09-01 18:14 
   Острів собак / Isle of Dogs (2018) igor911  5 / 0   1.46 GB   2018-09-01 17:18 
santaklava 
Частий відвідувач


З нами з: 12.10.09
Востаннє: 13.11.18
Повідомлень: 41

2018-07-14 17:08  
дуже гарний, добрий мультфільм
діти Містера Фокса оцінили,
думаю і цей їм сподобається
дякую

Юрец 2278 
Новенький


З нами з: 01.06.12
Востаннє: 05.10.18
Повідомлень: 5

2018-08-06 18:25  
Дуже гарний мультфільм, дивитись усім.
staf777 
Попереджень: 1
Попереджень: 1 


З нами з: 16.11.16
Востаннє: 14.11.18
Повідомлень: 1743

2018-09-01 18:40  
Оновлено 5.1 звуком та повними сабами з блурея, покращено форс.саби на написи.
Ваш часовий пояс: GMT + 2 Години

Нова тема   Відповісти