Вірус для солдатів / Swap / Weaponized (2016) 720p Ukr/Eng

Нові коментарі

Нова тема   Відповісти
Автор Повідомлення
staf777 
Відео Гуртом - підтримка та поширення
Відео Гуртом - підтримка та поширення


З нами з: 16.11.16
Востаннє: 27.09.20
Повідомлень: 4053

2018-07-10 08:55  
Вірус для солдатів / Swap / Weaponized (2016) 720p Ukr/Eng

Вірус для солдатів / Swap / Weaponized (2016) 720p Ukr/Eng


Жанр: фантастика, бойовик, трилер
Країна: США



Кінокомпанія: Puppy Entertainment, Status Media & Entertainment
Режисер: Тімоті Вудворд мол.
Актори: Том Сайзмор, Джонні Месснер, Міккі Рурк, Тейлор Коул, Джон Фу, Майкл Паре, Кріс Деймон, Каллен Дж. Чемберс, Тімоті Вудворд мл, Джон Лофлін

Сюжет:
Найближче майбутнє, біотехнології досягли достатнього рівня, щоб інтегрувати воєдино людську плоть і бойову роботизовану броню. У секретних лабораторіях створені перші практично непереможні солдати-кіборги. Поліцейський детектив, розслідуючи вбивство свого сина - жертви теракту, вирішує перепрограмувати кіборгів і направити їх проти терористичного угрупування винного у смерті його сина. Однак, вірус, яким він заражає командну систему біороботів перетворює їх в нещадних вбивць всього живого навколо...


Тривалість: 01:30:58
Якість: 720p
Відео:
кодек:
розмір кадру: 1280x544
бітрейт: 5368 кб/с

Аудіо # 1:
мова: українська
переклад: багатоголосий закадровий
кодек: 2.0
бітрейт: 192 кб/с

Аудіо # 2:
мова: англійська
переклад: оригінал
кодек: 5.1
бітрейт: 1509 кб/с

Джерело озвучення:
Info
General
Unique ID : 179916016069960790456518618196832779992 (0x875A9074CFB28999EF92134208257ED8)
Complete name : D:\Майбутні релізи\Swap (2016) 720p [UKR_ENG] [Hurtom].
Format :
Format version : Version 4 / Version 2
File size : 4.49 GiB
Duration : 1 h 30 min
Overall bit rate : 7 071 kb/s
Encoded date : UTC 2018-07-10 05:34:11
Writing application : v24.0.0 ('Beyond The Pale') 64-bit
Writing library : libebml v1.3.6 + v1.4.9
Cover : Yes
Attachments : cover.jpg

Video
ID : 1
Format : AVC
Format/Info : Advanced Video Codec
Format profile : [email protected]
Format settings : CABAC / 5 Ref Frames
Format settings, CABAC : Yes
Format settings, ReFrames : 5 frames
Codec ID : V_MPEG4/ISO/AVC
Duration : 1 h 30 min
Bit rate : 5 368 kb/s
Width : 1 280 pixels
Height : 544 pixels
Display aspect ratio : 2.35:1
Frame rate mode : Constant
Frame rate : 23.976 FPS
Color space : YUV
Chroma subsampling : 4:2:0
Bit depth : 8 bits
Scan type : Progressive
Bits/(Pixel*Frame) : 0.322
Stream size : 3.41 GiB (76%)
Writing library : core 148 r2665 a01e339
Encoding settings : cabac=1 / ref=5 / deblock=1:0:0 / analyse=0x3:0x133 / me=umh / subme=7 / psy=1 / psy_rd=1.00:0.00 / mixed_ref=1 / me_range=16 / chroma_me=1 / trellis=1 / 8x8dct=1 / cqm=0 / deadzone=21,11 / fast_pskip=0 / chroma_qp_offset=-2 / threads=17 / lookahead_threads=2 / sliced_threads=0 / nr=0 / decimate=1 / interlaced=0 / bluray_compat=0 / constrained_intra=0 / bframes=3 / b_pyramid=2 / b_adapt=1 / b_bias=0 / direct=1 / weightb=1 / open_gop=0 / weightp=2 / keyint=250 / keyint_min=23 / scenecut=40 / intra_refresh=0 / rc_lookahead=40 / rc=2pass / mbtree=1 / bitrate=5368 / ratetol=1.0 / qcomp=0.60 / qpmin=0 / qpmax=69 / qpstep=4 / cplxblur=20.0 / qblur=0.5 / ip_ratio=1.40 / aq=1:1.00
Language : English
Default : Yes
Forced : No

Audio #1
ID : 2
Format : AC-3
Format/Info : Audio Coding 3
Codec ID : A_AC3
Duration : 1 h 30 min
Bit rate mode : Constant
Bit rate : 192 kb/s
Channel(s) : 2 channels
Channel positions : Front: L R
Sampling rate : 48.0 kHz
Frame rate : 31.250 FPS (1536 SPF)
Bit depth : 16 bits
Compression mode : Lossy
Stream size : 125 MiB (3%)
Title : [UA-MVO-2+2]
Language : Ukrainian
Service kind : Complete Main
Default : Yes
Forced : Yes

Audio #2
ID : 3
Format :
Format/Info : Digital Theater Systems
Codec ID : A_DTS
Duration : 1 h 30 min
Bit rate mode : Constant
Bit rate : 1 509 kb/s
Channel(s) : 6 channels
Channel positions : Front: L C R, Side: L R, LFE
Sampling rate : 48.0 kHz
Frame rate : 93.750 FPS (512 SPF)
Bit depth : 24 bits
Compression mode : Lossy
Stream size : 982 MiB (21%)
Language : English
Default : No
Forced : No
Скріншоти



Запис звуку з ТБ Neytreenor Синхронізація drop_plz
Джерело: &
Особиста оцінка: 0 - не дивився


 Трекер:    Зареєстрований   

Завантажити / скачати фільм українською



відео для новачків



 Зареєстрований:   2018-07-10 08:55
 Розмір:   4.49 GB 
 Оцінка фільму:   7.8/10 (Голосів: 4)
   
Інші релізи
   Вірус для солдатів / Swap / Weaponized (2016) Ukr/Eng drop_plz  2 / 0   1.45 GB   2018-07-10 00:15 
Ваш часовий пояс: GMT + 2 Години

Нова тема   Відповісти