Адаптацiя. / Adaptation. (2002) 720p Ukr/Eng | Sub Eng

Нові коментарі

Нова тема   Відповісти
Автор Повідомлення
staf777 
Відео Гуртом - підтримка та поширення
Відео Гуртом - підтримка та поширення


З нами з: 16.11.16
Востаннє: 05.08.20
Повідомлень: 3928

2018-07-09 22:53  
Адаптацiя. / Adaptation. (2002) 720p Ukr/Eng | Sub Eng



Жанр: комедія, драма
Країна: США



Кінокомпанія: Beverly Detroit, Clinica Estetico, Good Machine
Режисер: Спайк Джонз / Spike Jonze
Актори: Ніколас Кейдж, Тільда Свінтон, Меріл Стріп, Кріс Купер, Джей Таваре, Лайтфут, Роджер Віллі, Джим Бівер, Кера Сеймур, Даґ Джонс, Стівен Тоболовскі, Ґері Фармер, Пітер Джейсон, Ґреґорі Ітцин, Кертіс Генсон, Аґнес НаДін Бадду, Пол Форчун, Пол Джасмін, Ліза Лав, Венді Моґел, Девід О. Расселл, Джуді Грір, Меґґі Джилленгол, Роберт Дж. Стефенсон, Лінн Корт, Роджер І. Фантер, Сандра Лі Джімпел, Рон Лівінґстон

Сюжет:
У 1992 році Джон Ларош і його дружина засновують у Флориді розплідник для рослин. Однак в автомобільній катастрофі гинуть мати і дядько Ларош, а дружина після приходу до тями подає на розлучення. Через місяць через ураган Ендрю виявляється зруйнованим розплідник і будинок. Лароша, завдяки його знанням по вирощуванню і пошуку орхідей, наймають місцеві індіанці семіноли, що використовують орхідеї для створення наркотиків.


Тривалість: 01:54:55
Якість: 720p
Відео:
кодек:
розмір кадру: 1280x694
бітрейт: 6500 кб/с

Аудіо # 1:
мова: українська
переклад: багатоголосий закадровий
кодек: 2.0
бітрейт: 192 кб/с

Аудіо # 2:
мова: англійська
переклад: оригінал
кодек: 5.1
бітрейт: 1509 кб/с

Субтитри:
мова: англійська
тип: програмні (м'які)
формат: *.srt
Info
General
Unique ID : 107265221956218242855475355905205435783 (0x50B287C175351462392EC6CE9BE37D87)
Complete name : D:\Фільми в HD\Комедія\Adaptation. (2002) 720p[Ukr][Eng][Sub Eng][Hurtom].
Format :
Format version : Version 4 / Version 2
File size : 6.58 GiB
Duration : 1 h 54 min
Overall bit rate : 8 201 kb/s
Movie name : Adaptation. (2002) 720p[Ukr][Eng][Sub Eng][Hurtom]
Encoded date : UTC 2018-07-10 13:29:36
Writing application : v24.0.0 ('Beyond The Pale') 64-bit
Writing library : libebml v1.3.6 + v1.4.9
Attachments : Adaptation-12.jpg

Video
ID : 1
Format : AVC
Format/Info : Advanced Video Codec
Format profile : [email protected]
Format settings : CABAC / 9 Ref Frames
Format settings, CABAC : Yes
Format settings, ReFrames : 9 frames
Codec ID : V_MPEG4/ISO/AVC
Duration : 1 h 54 min
Bit rate : 6 500 kb/s
Width : 1 280 pixels
Height : 694 pixels
Display aspect ratio : 1.85:1
Frame rate mode : Constant
Frame rate : 23.976 (24000/1001) FPS
Color space : YUV
Chroma subsampling : 4:2:0
Bit depth : 8 bits
Scan type : Progressive
Bits/(Pixel*Frame) : 0.305
Stream size : 5.22 GiB (79%)
Title : HDCLUB
Writing library : core 129 r2245 bc13772
Encoding settings : cabac=1 / ref=9 / deblock=1:-3:-3 / analyse=0x3:0x113 / me=umh / subme=11 / psy=1 / psy_rd=1.20:0.00 / mixed_ref=1 / me_range=32 / chroma_me=1 / trellis=2 / 8x8dct=1 / cqm=0 / deadzone=21,11 / fast_pskip=0 / chroma_qp_offset=-2 / threads=12 / lookahead_threads=2 / sliced_threads=0 / nr=0 / decimate=1 / interlaced=0 / bluray_compat=0 / constrained_intra=0 / bframes=9 / b_pyramid=2 / b_adapt=2 / b_bias=0 / direct=1 / weightb=1 / open_gop=0 / weightp=2 / keyint=250 / keyint_min=23 / scenecut=40 / intra_refresh=0 / rc_lookahead=40 / rc=2pass / mbtree=0 / bitrate=6500 / ratetol=1.0 / qcomp=0.60 / qpmin=0 / qpmax=69 / qpstep=4 / cplxblur=20.0 / qblur=0.5 / vbv_maxrate=50000 / vbv_bufsize=62500 / nal_hrd=none / ip_ratio=1.40 / pb_ratio=1.30 / aq=1:0.80
Language : English
Default : Yes
Forced : No

Audio #1
ID : 2
Format : AC-3
Format/Info : Audio Coding 3
Codec ID : A_AC3
Duration : 1 h 54 min
Bit rate mode : Constant
Bit rate : 192 kb/s
Channel(s) : 2 channels
Channel positions : Front: L R
Sampling rate : 48.0 kHz
Frame rate : 31.250 FPS (1536 SPF)
Bit depth : 16 bits
Compression mode : Lossy
Stream size : 158 MiB (2%)
Title : Cine+ Legend
Language : Ukrainian
Service kind : Complete Main
Default : Yes
Forced : Yes

Audio #2
ID : 3
Format :
Format/Info : Digital Theater Systems
Codec ID : A_DTS
Duration : 1 h 54 min
Bit rate mode : Constant
Bit rate : 1 509 kb/s
Channel(s) : 6 channels
Channel positions : Front: L C R, Side: L R, LFE
Sampling rate : 48.0 kHz
Frame rate : 93.750 FPS (512 SPF)
Bit depth : 24 bits
Compression mode : Lossy
Stream size : 1.21 GiB (18%)
Language : English
Default : No
Forced : No

Text
ID : 4
Format : UTF-8
Codec ID : S_TEXT/UTF8
Codec ID/Info : UTF-8 Plain Text
Duration : 1 h 49 min
Bit rate : 70 b/s
Count of elements : 1434
Stream size : 56.6 KiB (0%)
Language : English
Default : No
Forced : No

Menu
00:00:00.000 : :00:00:00.000
00:06:10.870 : :00:06:10.870
00:12:15.067 : :00:12:15.067
00:19:18.699 : :00:19:18.699
00:27:27.062 : :00:27:27.062
00:34:05.001 : :00:34:05.001
00:42:18.035 : :00:42:18.035
00:48:24.526 : :00:48:24.526
00:58:27.670 : :00:58:27.670
01:06:20.476 : :01:06:20.476
01:13:35.119 : :01:13:35.119
01:17:39.863 : :01:17:39.863
01:22:19.309 : :01:22:19.309
01:27:26.574 : :01:27:26.574
01:33:13.754 : :01:33:13.754
01:42:06.119 : :01:42:06.119
Скріншоти



Джерело: & &
Особиста оцінка: 0 - не дивився


Срібний реліз (на рейтинг впливає 50% завантаженого)
 Трекер:    Зареєстрований   

Завантажити / скачати фільм українською



відео для новачків



 Зареєстрований:   2018-07-10 16:55
 Розмір:   6.58 GB 
 Оцінка фільму:   8.8/10 (Голосів: 8)
   
Інші релізи
   Адаптацiя. / Adaptation. (2002) 1080p Ukr/Eng | Sub Eng drop_plz  2 / 0   7.8 GB   2019-06-10 13:01 
   Адаптацiя. / Adaptation. (2002) Remux 1080p Ukr/Eng | Sub Eng staf777  2 / 0   18.69 GB   2018-07-12 18:27 
   Адаптацiя. / Adaptation. (2002) AVC Ukr/Eng | Sub Eng Sando7  6 / 0   2.13 GB   2018-07-09 12:31 
bot 
робот


З нами з: 30.09.07
Востаннє: 26.05.05
Повідомлень: 25167

2018-07-10 16:55  
Тему перенесено з Анонси релізів до форуму Фільми в HD


staf777

Ваш часовий пояс: GMT + 2 Години

Нова тема   Відповісти