Хоробра (Відважна) / The Brave One (2007) Remux 1080p Ukr/Eng | Sub Eng

Нові коментарі

Нова тема   Відповісти
Автор Повідомлення
staf777 
Відео Гуртом - підтримка та поширення
Відео Гуртом - підтримка та поширення


З нами з: 16.11.16
Востаннє: 12.12.19
Повідомлень: 3056

2018-07-09 16:21  
Хоробра (Відважна) / The Brave One (2007) Remux 1080p Ukr/Eng | Sub Eng

Хоробра (Відважна) / The Brave One (2007) Remux 1080p Ukr/Eng | Sub Eng
Альтернативний постер:



Жанр: драма, трилер
Країна: США, Австралія



Кінокомпанія: Redemption Pictures, Silver Pictures, Village Roadshow Pictures, WV Films III
Режисер: Ніл Джордан / Neil Jordan
Актори: Джоді Фостер, Невін Ендрюс, Ніккі Кетт, Терренс Говард, Мері Стінберген, Джейн Адамс

Сюжет:
Для Еріки Бейн (Фостер) вулиці Нью-Йорка стали домівкою і сенсом життя. Вона працює ведучою програми на радіостанції під назвою «Прогулянки по Нью-Йорку» і ділиться з радіослухачами звуками, які чує у своєму улюбленому місті, історіями, якими це місто ділиться з нею. А увечері вона поспішає додому до нареченого Дейвіда, кохання всього її життя. Але однієї жахливої ночі Еріку позбавляють всього, що для неї важливе і дороге, що вона любить і цінує, коли вони з Дейвідом випадково виявляються жертвами нападу, в ході якого Дейвіда вбивають, а Еріка опиняється в критичному стані.
Еріка намагається оговтатись після жорстокого нападу. Вона отримала сильні поранення, а її наречений загинув. Єдиним порятунком для жінки стає помста...

Зйомки стрічки проходили у Нью-Йорку. Продюсер – Джоел Сілвер (“Смертельна зброя”, “Міцний горішок”). Фостер останнім часом можна побачити здебільшого у трилерах, однак на запитання, чи це її улюблений жанр, актриса відповіла, що взагалі-то давно хоче знятися в комедії, тільки ніяк не може знайти інтелігентну.


Тривалість: 02:02:18
Якість: Remux 1080p
Відео:
кодек:
розмір кадру: 1920x1080
бітрейт: 17 Mб/с

Аудіо # 1:
мова: українська
переклад: багатоголосий закадровий
кодек: 5.1
бітрейт: 384 кб/с

Аудіо # 2:
мова: англійська
переклад: оригінал
кодек: -HD МА 5.1
бітрейт: 1722 кб/с

Джерело озвучення:


Субтитри:
мова: англійська
тип: програмні (м'які)
формат: *.srt
Info
General
Unique ID : 162185508980799867517078342130851348241 (0x7A03CAF6DA6A9B081028E3B5642B7F11)
Complete name : D:\Фільми в HD\Трилер\The Brave One (2007) Remux 1080p [UKR_ENG] [Hurtom].
Format :
Format version : Version 4 / Version 2
File size : 16.3 GiB
Duration : 2 h 2 min
Overall bit rate : 19.1 Mb/s
Movie name : The Brave One (2007) Remux 1080p [UKR_ENG] [Hurtom]
Encoded date : UTC 2018-07-10 06:25:38
Writing application : v24.0.0 ('Beyond The Pale') 64-bit
Writing library : libebml v1.3.6 + v1.4.9
Cover : Yes
Attachments : TBO_Cover.jpg

Video
ID : 1
Format : VC-1
Format profile : [email protected]
Codec ID : V_MS/VFW/FOURCC / WVC1
Codec ID/Hint : Microsoft
Duration : 2 h 2 min
Bit rate : 17.0 Mb/s
Width : 1 920 pixels
Height : 1 080 pixels
Display aspect ratio : 16:9
Frame rate mode : Constant
Frame rate : 23.976 (24000/1001) FPS
Color space : YUV
Chroma subsampling : 4:2:0
Bit depth : 8 bits
Scan type : Progressive
Compression mode : Lossy
Bits/(Pixel*Frame) : 0.342
Stream size : 14.5 GiB (89%)
Title : The Brave One (2007) BD25 1080p VC-1
Language : English
Default : Yes
Forced : No

Audio #1
ID : 2
Format : AC-3
Format/Info : Audio Coding 3
Codec ID : A_AC3
Duration : 2 h 2 min
Bit rate mode : Constant
Bit rate : 384 kb/s
Channel(s) : 6 channels
Channel positions : Front: L C R, Side: L R, LFE
Sampling rate : 48.0 kHz
Frame rate : 31.250 FPS (1536 SPF)
Bit depth : 16 bits
Compression mode : Lossy
Stream size : 336 MiB (2%)
Title : [UA-MVO]
Language : Ukrainian
Service kind : Complete Main
Default : Yes
Forced : Yes

Audio #2
ID : 3
Format :
Format/Info : Digital Theater Systems
Format profile : MA / Core
Codec ID : A_DTS
Duration : 2 h 2 min
Bit rate mode : Variable / Constant
Bit rate : 1 722 kb/s / 768 kb/s
Channel(s) : 6 channels
Channel positions : Front: L C R, Side: L R, LFE
Sampling rate : 48.0 kHz
Frame rate : 93.750 FPS (512 SPF)
Bit depth : 16 bits
Compression mode : Lossless / Lossy
Stream size : 1.47 GiB (9%)
Language : English
Default : No
Forced : No

Text
ID : 4
Format : UTF-8
Codec ID : S_TEXT/UTF8
Codec ID/Info : UTF-8 Plain Text
Duration : 2 h 1 min
Bit rate : 51 b/s
Count of elements : 1328
Stream size : 45.4 KiB (0%)
Language : English
Default : No
Forced : No

Menu
00:00:00.000 : en:On-Air Credits
00:03:41.054 : en:The Whole Deal
00:08:28.341 : en:Park Attack
00:11:01.411 : en:Doing Our Thing
00:14:48.888 : en:Doesn't Feel Like That
00:17:45.398 : en:Invaded Dreams
00:21:57.149 : en:I Realize How Difficult
00:26:17.242 : en:Illegal Purchase
00:30:02.634 : en:You Don't Let Go
00:32:18.103 : en:Corner Store
00:35:52.650 : en:Stranger Inside
00:40:40.605 : en:When It Touches You
00:45:35.650 : en:Subway Targets
00:49:31.802 : en:Every Bullet Hit Home
00:53:37.548 : en:Gone and Back Now
00:57:59.643 : en:Become Someone Else
01:02:51.768 : en:Backseat Show
01:06:50.506 : en:Windshield Wipeout
01:08:55.131 : en:Audience Profile
01:14:33.469 : en:When You Can't Sleep
01:17:39.154 : en:Going to Leave a Scar
01:22:34.283 : en:Friend at an Interview
01:27:30.745 : en:Just the Face
01:30:28.757 : en:The Lineup
01:35:59.587 : en:Someone Close to Me
01:40:36.030 : en:Private Searches
01:43:05.513 : en:Getting the Message
01:47:22.936 : en:90 Clayton Ave
01:50:52.813 : en:I Have the Right
01:53:26.967 : en:Never a Vigilante
01:58:14.087 : en:End Credits
Скріншоти




Подяка за українську звукову доріжку пані olgaya! тат пану MAKAPOHHIK'у, за постери - пану TPEM
Джерело: &
Особиста оцінка: 0 - не дивився


Золотий реліз (завантажене не впливає на рейтинг)
 Трекер:    Зареєстрований   

Завантажити / скачати фільм українською



відео для новачків



 Зареєстрований:   2018-07-10 09:52
 Розмір:   16.35 GB 
 Оцінка фільму:   8/10 (Голосів: 5)
   
Інші релізи
bot 
робот


З нами з: 30.09.07
Востаннє: 26.05.05
Повідомлень: 22618

2018-07-10 09:52  
Тему перенесено з Анонси релізів до форуму Фільми в HD


staf777

Ваш часовий пояс: GMT + 2 Години

Нова тема   Відповісти