Хоробра (Відважна) / The Brave One (2007) AVC Ukr/Eng | Sub Eng

Нові коментарі

Нова тема   Відповісти
Автор Повідомлення
staf777 
Попереджень: 1
Попереджень: 1 


З нами з: 16.11.16
Востаннє: 15.11.18
Повідомлень: 1744

2018-07-09 16:05  
Хоробра (Відважна) / The Brave One (2007) AVC Ukr/Eng | Sub Eng

Хоробра (Відважна) / The Brave One (2007) AVC Ukr/Eng | Sub Eng
Альтернативний постер:



Жанр: драма, трилер
Країна: США, Австралія



Кінокомпанія: Redemption Pictures, Silver Pictures, Village Roadshow Pictures, WV Films III
Режисер: Ніл Джордан / Neil Jordan
Актори: Джоді Фостер, Невін Ендрюс, Ніккі Кетт, Терренс Говард, Мері Стінберген, Джейн Адамс

Сюжет:
Для Еріки Бейн (Фостер) вулиці Нью-Йорка стали домівкою і сенсом життя. Вона працює ведучою програми на радіостанції під назвою «Прогулянки по Нью-Йорку» і ділиться з радіослухачами звуками, які чує у своєму улюбленому місті, історіями, якими це місто ділиться з нею. А увечері вона поспішає додому до нареченого Дейвіда, кохання всього її життя. Але однієї жахливої ночі Еріку позбавляють всього, що для неї важливе і дороге, що вона любить і цінує, коли вони з Дейвідом випадково виявляються жертвами нападу, в ході якого Дейвіда вбивають, а Еріка опиняється в критичному стані.
Еріка намагається оговтатись після жорстокого нападу. Вона отримала сильні поранення, а її наречений загинув. Єдиним порятунком для жінки стає помста...

Зйомки стрічки проходили у Нью-Йорку. Продюсер – Джоел Сілвер (“Смертельна зброя”, “Міцний горішок”). Фостер останнім часом можна побачити здебільшого у трилерах, однак на запитання, чи це її улюблений жанр, актриса відповіла, що взагалі-то давно хоче знятися в комедії, тільки ніяк не може знайти інтелігентну.


Тривалість: 02:02:18
Якість: AVC
Відео:
кодек:
розмір кадру: 1024х424
бітрейт: 2150 кб/с

Аудіо # 1:
мова: українська
переклад: багатоголосий закадровий
кодек: 5.1
бітрейт: 384 кб/с

Аудіо # 2:
мова: англійська
переклад: оригінал
кодек: 5.1
бітрейт: 384 кб/с

Джерело озвучення:


Субтитри:
мова: англійська
тип: програмні (м'які)
формат: *.srt
Info
General
Unique ID : 114862480058110348890153788601195699793 (0x5669B57FE9C3A4EC959A576551EE1E51)
Complete name : D:\Майбутні релізи\ The Brave One (2007) AVC [Ukr,Eng sub.Eng][Hurtom].
Format :
Format version : Version 4 / Version 2
File size : 2.49 GiB
Duration : 2 h 2 min
Overall bit rate : 2 919 kb/s
Movie name : The Brave One (2007) AVC [Ukr,Eng sub.Eng][Hurtom]
Encoded date : UTC 2018-07-09 14:44:07
Writing application : v24.0.0 ('Beyond The Pale') 64-bit
Writing library : libebml v1.3.6 + v1.4.9
Cover : Yes
Attachments : cover.jpg

Video
ID : 1
Format : AVC
Format/Info : Advanced Video Codec
Format profile : [email protected]
Format settings : CABAC / 8 Ref Frames
Format settings, CABAC : Yes
Format settings, ReFrames : 8 frames
Codec ID : V_MPEG4/ISO/AVC
Duration : 2 h 2 min
Bit rate : 2 150 kb/s
Width : 1 024 pixels
Height : 424 pixels
Display aspect ratio : 2.40:1
Frame rate mode : Constant
Frame rate : 23.976 FPS
Color space : YUV
Chroma subsampling : 4:2:0
Bit depth : 8 bits
Scan type : Progressive
Bits/(Pixel*Frame) : 0.207
Stream size : 1.84 GiB (74%)
Writing library : core 115 r1937 aa21558
Encoding settings : cabac=1 / ref=8 / deblock=1:-3:-3 / analyse=0x3:0x113 / me=umh / subme=9 / psy=1 / psy_rd=1.00:0.20 / mixed_ref=0 / me_range=32 / chroma_me=1 / trellis=2 / 8x8dct=1 / cqm=0 / deadzone=21,11 / fast_pskip=1 / chroma_qp_offset=-3 / threads=6 / sliced_threads=0 / nr=0 / decimate=1 / interlaced=0 / bluray_compat=0 / constrained_intra=0 / bframes=8 / b_pyramid=2 / b_adapt=2 / b_bias=0 / direct=3 / weightb=1 / open_gop=0 / weightp=0 / keyint=240 / keyint_min=23 / scenecut=40 / intra_refresh=0 / rc_lookahead=40 / rc=2pass / mbtree=1 / bitrate=2150 / ratetol=1.0 / qcomp=0.60 / qpmin=0 / qpmax=69 / qpstep=4 / cplxblur=20.0 / qblur=0.5 / ip_ratio=1.40 / aq=1:1.10
Language : English
Default : Yes
Forced : No

Audio #1
ID : 2
Format : AC-3
Format/Info : Audio Coding 3
Codec ID : A_AC3
Duration : 2 h 2 min
Bit rate mode : Constant
Bit rate : 384 kb/s
Channel(s) : 6 channels
Channel positions : Front: L C R, Side: L R, LFE
Sampling rate : 48.0 kHz
Frame rate : 31.250 FPS (1536 SPF)
Bit depth : 16 bits
Compression mode : Lossy
Stream size : 336 MiB (13%)
Title : [UA-MVO-ICTV]
Language : Ukrainian
Service kind : Complete Main
Default : Yes
Forced : Yes

Audio #2
ID : 3
Format : AC-3
Format/Info : Audio Coding 3
Codec ID : A_AC3
Duration : 2 h 2 min
Bit rate mode : Constant
Bit rate : 384 kb/s
Channel(s) : 6 channels
Channel positions : Front: L C R, Side: L R, LFE
Sampling rate : 48.0 kHz
Frame rate : 31.250 FPS (1536 SPF)
Bit depth : 16 bits
Compression mode : Lossy
Stream size : 336 MiB (13%)
Language : English
Service kind : Complete Main
Default : No
Forced : No

Text
ID : 4
Format : UTF-8
Codec ID : S_TEXT/UTF8
Codec ID/Info : UTF-8 Plain Text
Duration : 2 h 1 min
Bit rate : 51 b/s
Count of elements : 1328
Stream size : 45.4 KiB (0%)
Title : Английские
Language : English
Default : No
Forced : No

Menu
00:00:00.000 : en:On-Air Credits
00:03:41.054 : en:The Whole Deal
00:08:28.341 : en:Park Attack
00:11:01.411 : en:Doing Our Thing
00:14:48.888 : en:Doesn't Feel Like That
00:17:45.398 : en:Invaded Dreams
00:21:57.149 : en:I Realize How Difficult
00:26:17.242 : en:Illegal Purchase
00:30:02.634 : en:You Don't Let Go
00:32:18.103 : en:Corner Store
00:35:52.650 : en:Stranger Inside
00:40:40.605 : en:When It Touches You
00:45:35.650 : en:Subway Targets
00:49:31.802 : en:Every Bullet Hit Home
00:53:37.548 : en:Gone and Back Now
00:57:59.643 : en:Become Someone Else
01:02:51.768 : en:Backseat Show
01:06:50.506 : en:Windshield Wipeout
01:08:55.131 : en:Audience Profile
01:14:33.469 : en:When You Can't Sleep
01:17:39.154 : en:Going to Leave a Scar
01:22:34.283 : en:Friend at an Interview
01:27:30.745 : en:Just the Face
01:30:28.757 : en:The Lineup
01:35:59.587 : en:Someone Close to Me
01:40:36.030 : en:Private Searches
01:43:05.513 : en:Getting the Message
01:47:22.936 : en:90 Clayton Ave
01:50:52.813 : en:I Have the Right
01:53:26.967 : en:Never a Vigilante
01:58:14.087 : en:End Credits
Скріншоти




Подяка за українську звукову доріжку пані olgaya! тат пану MAKAPOHHIK'у, за постери - пану TPEM
Джерело: &
Особиста оцінка: 0 - не дивився


 Трекер:    Зареєстрований   

Завантажити / скачати фільм українською



відео для новачків



 Зареєстрований:   2018-07-09 16:56
 Розмір:   2.49 GB 
 Оцінка фільму:   8.5/10 (Голосів: 14)
   
Інші релізи
Victor_Scythian 
Поважний учасник


З нами з: 06.01.17
Востаннє: 14.11.18
Повідомлень: 221

2018-07-10 19:27  
Дякую.
mazafakavdv 
Новенький


З нами з: 01.07.17
Востаннє: 14.11.18
Повідомлень: 2

2018-07-17 13:25  
дякую
chanis 
Частий відвідувач


З нами з: 21.12.15
Востаннє: 15.11.18
Повідомлень: 34

2018-08-10 21:29  
Як завжди неперевершена гра Джоді Фостер , створювані нею образи зачаровують .Геніальна актриса.Оцінка фільму 10\10.
Дякую.

Ваш часовий пояс: GMT + 2 Години

Нова тема   Відповісти