Адаптацiя. / Adaptation. (2002) AVC Ukr/Eng | Sub Eng

Нові коментарі

Нова тема   Відповісти
Автор Повідомлення
Anonymous 







2018-07-09 11:31  
Адаптацiя. / Adaptation. (2002) AVC Ukr/Eng | Sub Eng

Адаптацiя. / Adaptation. (2002) AVC Ukr/Eng | Sub Eng


Жанр: комедія, драма
Країна: США



Кінокомпанія: Beverly Detroit, Clinica Estetico, Good Machine
Режисер: Спайк Джонз / Spike Jonze
Актори: Ніколас Кейдж, Тільда Свінтон, Меріл Стріп, Кріс Купер, Джей Таваре, Лайтфут, Роджер Віллі, Джим Бівер, Кера Сеймур, Даґ Джонс, Стівен Тоболовскі, Ґері Фармер, Пітер Джейсон, Ґреґорі Ітцин, Кертіс Генсон, Аґнес НаДін Бадду, Пол Форчун, Пол Джасмін, Ліза Лав, Венді Моґел, Девід О. Расселл, Джуді Грір, Меґґі Джилленгол, Роберт Дж. Стефенсон, Лінн Корт, Роджер І. Фантер, Сандра Лі Джімпел, Рон Лівінґстон

Сюжет:
У 1992 році Джон Ларош і його дружина засновують у Флориді розплідник для рослин. Однак в автомобільній катастрофі гинуть мати і дядько Ларош, а дружина після приходу до тями подає на розлучення. Через місяць через ураган Ендрю виявляється зруйнованим розплідник і будинок. Лароша, завдяки його знанням по вирощуванню і пошуку орхідей, наймають місцеві індіанці семіноли, що використовують орхідеї для створення наркотиків.



Тривалість: 01:54:55
Якість: AVC
Відео:
кодек:
розмір кадру: 1024 х 556
бітрейт: 2016 кб/с

Аудіо # 1:
мова: українська
переклад: багатоголосий закадровий
кодек: 2.0 (stereo)
бітрейт: 192 кб/с

Аудіо # 2:
мова: англійська
переклад: оригінал
кодек: 5.1
бітрейт: 448 кб/с

Субтитри:
мова: англійська
тип: програмні (м'які)
формат: *.srt
Info
Video
ID : 1
Format : AVC
Format/Info : Advanced Video Codec
Format profile : [email protected]
Format settings : CABAC / 8 Ref Frames
Format settings, CABAC : Yes
Format settings, ReFrames : 8 frames
Codec ID : V_MPEG4/ISO/AVC
Duration : 1 h 54 min
Bit rate : 2 016 kb/s
Width : 1 024 pixels
Height : 556 pixels
Display aspect ratio : 1.85:1
Frame rate mode : Constant
Frame rate : 23.976 (24000/1001) FPS
Color space : YUV
Chroma subsampling : 4:2:0
Bit depth : 8 bits
Scan type : Progressive
Bits/(Pixel*Frame) : 0.148
Stream size : 1.62 GiB (76%)
Writing library : core 116 r2074 2641b9e
Encoding settings : cabac=1 / ref=8 / deblock=1:-3:-3 / analyse=0x3:0x113 / me=umh / subme=9 / psy=1 / psy_rd=1.00:0.00 / mixed_ref=1 / me_range=48 / chroma_me=1 / trellis=2 / 8x8dct=1 / cqm=0 / deadzone=21,11 / fast_pskip=1 / chroma_qp_offset=-2 / threads=3 / sliced_threads=0 / nr=0 / decimate=1 / interlaced=0 / bluray_compat=0 / constrained_intra=0 / bframes=7 / b_pyramid=2 / b_adapt=1 / b_bias=0 / direct=3 / weightb=1 / open_gop=0 / weightp=2 / keyint=250 / keyint_min=23 / scenecut=40 / intra_refresh=0 / rc=2pass / mbtree=0 / bitrate=2016 / ratetol=1.0 / qcomp=0.60 / qpmin=10 / qpmax=51 / qpstep=4 / cplxblur=20.0 / qblur=0.5 / ip_ratio=1.40 / pb_ratio=1.30 / aq=1:1.00
Default : Yes
Forced : No

Audio #1
ID : 2
Format : AC-3
Format/Info : Audio Coding 3
Codec ID : A_AC3
Duration : 1 h 54 min
Bit rate mode : Constant
Bit rate : 192 kb/s
Channel(s) : 2 channels
Channel positions : Front: L R
Sampling rate : 48.0 kHz
Frame rate : 31.250 FPS (1536 SPF)
Bit depth : 16 bits
Compression mode : Lossy
Stream size : 158 MiB (7%)
Title : Cine+ Legend
Language : Ukrainian
Service kind : Complete Main
Default : Yes
Forced : Yes

Audio #2
ID : 3
Format : AC-3
Format/Info : Audio Coding 3
Codec ID : A_AC3
Duration : 1 h 54 min
Bit rate mode : Constant
Bit rate : 448 kb/s
Channel(s) : 6 channels
Channel positions : Front: L C R, Side: L R, LFE
Sampling rate : 48.0 kHz
Frame rate : 31.250 FPS (1536 SPF)
Bit depth : 16 bits
Compression mode : Lossy
Stream size : 368 MiB (17%)
Title : Оригінал
Language : English
Service kind : Complete Main
Default : No
Forced : No

Text
ID : 4
Format : UTF-8
Codec ID : S_TEXT/UTF8
Codec ID/Info : UTF-8 Plain Text
Duration : 1 h 50 min
Bit rate : 73 b/s
Count of elements : 1612
Stream size : 59.0 KiB (0%)
Language : English
Default : No
Forced : No

Menu
00:00:00.000 : en:
00:06:10.870 : en:
00:12:15.067 : en:
00:19:18.699 : en:
00:27:27.062 : en:
00:34:05.001 : en:
00:42:18.035 : en:
00:48:24.526 : en:
00:58:27.670 : en:
01:06:20.476 : en:
01:13:35.119 : en:
01:17:39.863 : en:
01:22:19.309 : en:
01:27:26.574 : en:
01:33:13.754 : en:
01:42:06.120 : en:
Скріншоти




Джерело:


Срібний реліз (на рейтинг впливає 50% завантаженого)
 Трекер:    Зареєстрований   

Завантажити / скачати фільм українською



відео для новачків



 Зареєстрований:   2018-07-09 11:31
 Розмір:   2.13 GB 
 Оцінка фільму:   9.2/10 (Голосів: 15)
   
Інші релізи
   Адаптацiя. / Adaptation. (2002) Remux 1080p Ukr/Eng | Sub Eng staf777  1 / 0   18.69 GB   2018-07-12 17:27 
   Адаптацiя. / Adaptation. (2002) 720p Ukr/Eng | Sub Eng staf777  2 / 0   6.58 GB   2018-07-10 15:55 
Ваш часовий пояс: GMT + 2 Години

Нова тема   Відповісти