Формула 1. Сезон 2018. Етап 10. Гран-Прі Великобританії. Гонка (08.07.2018) 1080p

Нові коментарі

Нова тема   Відповісти
Останній раз роздавалося VicCob (2020-10-21)
Автор Повідомлення
sergiyko.5 
VIP


З нами з: 25.02.16
Востаннє: 21.10.20
Повідомлень: 3588

2018-07-08 20:10  
Формула 1. Сезон 2018. Етап 10. Гран-Прі Великобританії. Гонка (08.07.2018) 1080p


Формула 1. Сезон 2018. Етап 10. Гран-Прі Великобританії. Гонка (08.07.2018) 1080p

Жанр: Перегони Формули 1
Країна: Великобританія
Телеканал: Перший автомобільний
Коментатор: Максим Подзігун

Опис:
Гонка десятого етапу Гран-Прі Великобританії 2018 року.


Тривалість: 01:58:22
Якість:

Відео: кодек: розмір кадру: 1920 х 1080 бітрейт: 8000 кб/с
Аудіо: мова: українська кодек: 2.0 бітрейт: 192 кб/с
Про файл:

General
Unique ID : 158553069712053715726008770088626936323 (0x774835E193F37DE91340ACAFB4B9DA03)
Complete name : D:\Torrents\SPORT\Formula 1\F1.2018.Race\F1.2018.10.British.Race.1080p..Ukr.
Format :
Format version : Version 4 / Version 2
File size : 6.73 GiB
Duration : 1 h 58 min
Overall bit rate : 8 137 kb/s
Encoded date : UTC 2018-07-08 17:01:16
Writing application : v24.0.0 ('Beyond The Pale') 64-bit
Writing library : libebml v1.3.6 + v1.4.9

Video
ID : 1
Format : AVC
Format/Info : Advanced Video Codec
Format profile : [email protected]
Format settings : CABAC / 4 Ref Frames
Format settings, CABAC : Yes
Format settings, ReFrames : 4 frames
Format settings, GOP : M=4, N=28
Codec ID : V_MPEG4/ISO/AVC
Duration : 1 h 58 min
Bit rate : 7 942 kb/s
Width : 1 920 pixels
Height : 1 080 pixels
Display aspect ratio : 16:9
Frame rate mode : Constant
Frame rate : 25.000 FPS
Color space : YUV
Chroma subsampling : 4:2:0
Bit depth : 8 bits
Scan type : Progressive
Bits/(Pixel*Frame) : 0.153
Stream size : 6.57 GiB (98%)
Language : English
Default : Yes
Forced : No

Audio
ID : 2
Format :
Format/Info : Advanced Audio Codec
Format profile : LC
Codec ID : A_AAC-2
Duration : 1 h 58 min
Bit rate : 192 kb/s
Channel(s) : 2 channels
Channel positions : Front: L R
Sampling rate : 48.0 kHz
Frame rate : 46.875 FPS (1024 SPF)
Compression mode : Lossy
Stream size : 163 MiB (2%)
Title : 1 Авто | Максим Подзігун
Language : Ukrainian
Default : Yes
Forced : No
Скріншоти:


Автор запису: Callistus


 Трекер:    Зареєстрований   

Завантажити / скачати торрент



відео для новачків



 Зареєстрований:   2018-07-08 20:10
 Розмір:   6.73 GB 
 Оцінка:   9.1/10 (Голосів: 21)
   
kimif1 
Новенький


З нами з: 01.01.17
Востаннє: 17.08.20
Повідомлень: 5

2018-07-08 20:16  
Дуже вам дякую!!!!
VicCob 
Свій


З нами з: 16.06.10
Востаннє: 11.10.20
Повідомлень: 57

2018-07-08 21:05  
Дякую за якість і швидкість!
butser 
Новенький


З нами з: 10.04.18
Востаннє: 20.10.20
Повідомлень: 15

2018-07-08 23:39  
дякую дуже!
Denya1 
Новенький


З нами з: 15.07.17
Востаннє: 27.04.20
Повідомлень: 2

2018-07-12 17:10  
А чи можете додати англійську мову?
sergiyko.5 
VIP


З нами з: 25.02.16
Востаннє: 21.10.20
Повідомлень: 3588

2018-07-12 17:36  
Denya1 написано:
А чи можете додати англійську мову?

Ви знаєте скільки це потребуватиме часу і сил? Додати на догоду одному користувачу?

Я цього робити не буду. Але можу дати посилання на файл, де є вибір звукових доріжок. Якщо потрібно пишіть у приват.

Denya1 
Новенький


З нами з: 15.07.17
Востаннє: 27.04.20
Повідомлень: 2

2018-07-18 06:19  
Цитата:
Ви знаєте скільки це потребуватиме часу і сил? Додати на догоду одному користувачу?

Я цього робити не буду. Але можу дати посилання на файл, де є вибір звукових доріжок. Якщо потрібно пишіть у приват.


я качаю на кацапському рутрекері, але з радістю мігрував би сюди. вже звик за 4 роки до англійських коментаторів.
можливо це було б не тільки мені цікаво. дуже корисно для вивчення мови.

Ваш часовий пояс: GMT + 2 Години

Нова тема   Відповісти