Формула 1. Сезон 2018. Етап 10. Гран-Прі Великобританії. Гонка (08.07.2018) 720p

Нові коментарі

Нова тема   Відповісти
Автор Повідомлення
sergiyko.5 
VIP


З нами з: 25.02.16
Востаннє: 20.10.20
Повідомлень: 3578

2018-07-08 19:23  
Формула 1. Сезон 2018. Етап 10. Гран-Прі Великобританії. Гонка (08.07.2018) 720p


Формула 1. Сезон 2018. Етап 10. Гран-Прі Великобританії. Гонка (08.07.2018) 720p

Жанр: Перегони Формули 1
Країна: Великобританія
Телеканал: Перший автомобільний
Коментатор: Максим Подзігун

Опис:
Гонка десятого етапу Гран-Прі Великобританії 2018 року.


Тривалість: 01:57:15
Якість:

Відео: кодек: розмір кадру: 1280 х 720 бітрейт: 4000 кб/с
Аудіо: мова: українська кодек: MP2 2.0 бітрейт: 192 кб/с
Про файл:

General
Unique ID : 244340956614351624677468070625432848634 (0xB7D25B437A5422D0A5812E5C7F2C48FA)
Complete name : D:\Torrents\SPORT\Formula 1\F1.2018.Race\F1.2018.10.British.Race.720p..Ukr.
Format :
Format version : Version 4 / Version 2
File size : 3.48 GiB
Duration : 1 h 57 min
Overall bit rate : 4 218 kb/s
Encoded date : UTC 2018-07-08 16:18:10
Writing application : v24.0.0 ('Beyond The Pale') 64-bit
Writing library : libebml v1.3.6 + v1.4.9

Video
ID : 1
Format : AVC
Format/Info : Advanced Video Codec
Format profile : [email protected]
Format settings : CABAC / 4 Ref Frames
Format settings, CABAC : Yes
Format settings, ReFrames : 4 frames
Codec ID : V_MPEG4/ISO/AVC
Duration : 1 h 57 min
Bit rate : 4 023 kb/s
Width : 1 280 pixels
Height : 720 pixels
Display aspect ratio : 16:9
Frame rate mode : Constant
Frame rate : 50.000 FPS
Color space : YUV
Chroma subsampling : 4:2:0
Bit depth : 8 bits
Scan type : Progressive
Bits/(Pixel*Frame) : 0.087
Stream size : 3.32 GiB (95%)
Language : English
Default : Yes
Forced : No

Audio
ID : 2
Format : MPEG Audio
Format version : Version 1
Format profile : Layer 2
Codec ID : A_MPEG/L2
Codec ID/Hint : MP2
Duration : 1 h 57 min
Bit rate mode : Constant
Bit rate : 192 kb/s
Channel(s) : 2 channels
Sampling rate : 48.0 kHz
Frame rate : 41.667 FPS (1152 SPF)
Compression mode : Lossy
Delay relative to video : 16 ms
Stream size : 162 MiB (5%)
Title : 1 Авто | Максим Подзігун
Language : Ukrainian
Default : Yes
Forced : No
Скріншоти:


Зведення: sergiyko


 Трекер:    Зареєстрований   

Завантажити / скачати торрент



відео для новачків



 Зареєстрований:   2018-07-08 19:23
 Розмір:   3.48 GB 
 Оцінка:   8.9/10 (Голосів: 16)
   
legioneRRR 
Частий відвідувач


З нами з: 02.01.15
Востаннє: 19.10.20
Повідомлень: 33

2018-07-08 19:25  
Тільки 720p ? =(
hamlet_ua 
Новенький


З нами з: 29.07.17
Востаннє: 10.07.20
Повідомлень: 2

2018-07-08 19:45  
А чому написано "Арена"? Це було в ефірі Автомобільного?
legioneRRR 
Частий відвідувач


З нами з: 02.01.15
Востаннє: 19.10.20
Повідомлень: 33

2018-07-08 19:52  
hamlet_ua
Звук записано з Першого автомобільного, а от картинка взята з Матч ТВ

hamlet_ua 
Новенький


З нами з: 29.07.17
Востаннє: 10.07.20
Повідомлень: 2

2018-07-08 20:07  
Дякую.
Тобто буде викинута частка ефіру, там де реклама?

sergiyko.5 
VIP


З нами з: 25.02.16
Востаннє: 20.10.20
Повідомлень: 3578

2018-07-08 20:12  
hamlet_ua написано:
Тобто буде викинута частка ефіру, там де реклама?


на початку вирізано 2 хв реклами, також присутня звукова реклама від першого в середині файлу.

Ваш часовий пояс: GMT + 2 Години

Нова тема   Відповісти