Близнюк (The Twin) / Le jumeau (1984) 2xUkr/Fra

Нові коментарі

Нова тема   Відповісти
Автор Повідомлення
Anonymous 







2018-07-08 14:42  
Близнюк / The Twin / Le jumeau (1984) 2xUkr/Fra

Близнюк (The Twin) / Le jumeau (1984) 2xUkr/Fra
Українізований та альтернативні постери і обкладинки:







Жанр: комедія
Країна: Франція



Кіностудія / кінокомпанія: Fideline Films, Les Productions de la Guéville
Режисер: Ів Робер / Yves Robert
Актори: П'єр Рішар / Pierre Richard, Жан-П'єр Кальфон / Jean-Pierre Kalfon, Камілла Мор / Camilla More, Керрі Мор / Carey More, Андреа Ферреоль / Andrea Ferreol, Жак Франц / Jacques Frantz, Жан-П'єр Кастальді / Jean-Pierre Castaldi, Поль Ле Персон / Paul Le Person та інші

Сюжет:
Програвши в карти усе своє майно, Маттіас Дюваль шукає притулку в товариша, що мешкає в курортному містечку на Лазурному березі. Там він знайомиться з привабливою блондинкою-американкою, багатою спадкоємицею на ім'я Ліз Кернер. Коли виявилося, що Ліз має сестру-близнюка Бетті, Маттіас експромтом видумує, що у нього теж є брат-близнюк. Гравець за натурою, він стає коханцем обох сестер, прикидаючись своїм братом-близнюком із другою з них, Бетті. Труднощі починаються, коли обидві сестри пропонують йому одружитися. А тим часом адвокат родини Кернерів Ернест Вольпінекс намагається зруйнувати їхні плани й позбутися авантюриста Дюваля.


Тривалість: 01:49:32
Якість:
Відео:
кодек:
розмір кадру: 720x432
бітрейт: 1627 кб/с

Аудіо # 1:
мова: українська
переклад: двоголосий закадровий
кодек: 2.0 (з 5.1)
бітрейт: 192 кб/с
ролі озвучили: Дмитро Завадський та Юлія Перенчук

Аудіо # 2:
мова: українська
переклад: двоголосий закадровий
кодек: 2.0 (з 5.1)
бітрейт: 192 кб/с
ролі озвучили: Анатолій Пашнін та Олена Узлюк

Аудіо # 3:
мова: французька
переклад: оригінал
кодек: 2.0
бітрейт: 192 кб/с
Info
Код:
General
Complete name               : Le jumeau (1984) [2xUkr,Fra] [Hurtom].avi
Format                      : AVI
Format/Info                 : Audio Video Interleave
File size                   : 1.70 GiB
Duration                    : 1 h 49 min
Overall bit rate            : 2 222 kb/s
Movie name                  : Близнюк / The Twin / Le jumeau (1984) [2xUkr,Fra] [Hurtom]
Genre                       : комедія
Recorded date               : 08.07.2018
Writing application         : VirtualDubModUkr 1.5.10.2 (build 2542/release)
Writing library             : VirtualDubMod build 2542/release
Comment                     : https://toloka.to/t93234

Video
ID                          : 0
Format                      : MPEG-4 Visual
Format profile              : Advanced [email protected]
Format settings             : BVOP1 / Custom Matrix
Format settings, BVOP       : 1
Format settings, QPel       : No
Format settings, GMC        : No warppoints
Format settings, Matrix     : Custom
Codec ID                    :
Codec ID/Hint               :
Duration                    : 1 h 49 min
Bit rate                    : 1 627 kb/s
Width                       : 720 pixels
Height                      : 432 pixels
Display aspect ratio        : 5:3
Frame rate                  : 24.000 FPS
Color space                 : YUV
Chroma subsampling          : 4:2:0
Bit depth                   : 8 bits
Scan type                   : Progressive
Compression mode            : Lossy
Bits/(Pixel*Frame)          : 0.218
Stream size                 : 1.25 GiB (73%)
Writing library             : 73

Audio #1
ID                          : 1
Format                      : AC-3
Format/Info                 : Audio Coding 3
Codec ID                    : 2000
Duration                    : 1 h 49 min
Bit rate mode               : Constant
Bit rate                    : 192 kb/s
Channel(s)                  : 2 channels
Channel positions           : Front: L R
Sampling rate               : 48.0 kHz
Frame rate                  : 31.250 FPS (1536 SPF)
Bit depth                   : 16 bits
Compression mode            : Lossy
Stream size                 : 150 MiB (9%)
Alignment                   : Split accross interleaves
Interleave, duration        : 42  ms (1.00 video frame)
Interleave, preload duratio : 500  ms
Title                       : UKR DVO [2+2]
Service kind                : Complete Main

Audio #2
ID                          : 2
Format                      : AC-3
Format/Info                 : Audio Coding 3
Codec ID                    : 2000
Duration                    : 1 h 49 min
Bit rate mode               : Constant
Bit rate                    : 192 kb/s
Channel(s)                  : 2 channels
Channel positions           : Front: L R
Sampling rate               : 48.0 kHz
Frame rate                  : 31.250 FPS (1536 SPF)
Bit depth                   : 16 bits
Compression mode            : Lossy
Stream size                 : 150 MiB (9%)
Alignment                   : Split accross interleaves
Interleave, duration        : 42  ms (1.00 video frame)
Interleave, preload duratio : 500  ms
Title                       : UKR DVO [NTN]
Service kind                : Complete Main

Audio #3
ID                          : 3
Format                      : AC-3
Format/Info                 : Audio Coding 3
Codec ID                    : 2000
Duration                    : 1 h 49 min
Bit rate mode               : Constant
Bit rate                    : 192 kb/s
Channel(s)                  : 2 channels
Channel positions           : Front: L R
Sampling rate               : 48.0 kHz
Frame rate                  : 31.250 FPS (1536 SPF)
Bit depth                   : 16 bits
Compression mode            : Lossy
Stream size                 : 150 MiB (9%)
Alignment                   : Split accross interleaves
Interleave, duration        : 42  ms (1.00 video frame)
Interleave, preload duratio : 500  ms
Title                       : FRE [Original]
Service kind                : Complete Main




Джерело: &
Українські доріжки: Technomate, ua2004, _oles, igor911; українізований постер: d1mma, інформація про озвучення: w2958l.


Срібний реліз (на рейтинг впливає 50% завантаженого)
 Трекер:    Зареєстрований   

Завантажити / скачати фільм українською



відео для новачків



 Зареєстрований:   2018-07-08 16:37
 Розмір:   1.7 GB 
 Оцінка фільму:   9.4/10 (Голосів: 9)
   
Інші релізи
   Близнюк (The Twin) / Le jumeau (1984) 720p 2xUkr/Fra | Sub Eng igor911  2 / 0   5.05 GB   2018-07-08 15:51 
Ваш часовий пояс: GMT + 2 Години

Нова тема   Відповісти