Близнюк (The Twin) / Le jumeau (1984) 720p 2xUkr/Fra | Sub Eng

Нові коментарі

Нова тема   Відповісти
Автор Повідомлення
Anonymous 







2018-07-08 15:39  
Близнюк / The Twin / Le jumeau (1984) 720p 2xUkr/Fra | Sub Eng

Близнюк (The Twin) / Le jumeau (1984) 720p 2xUkr/Fra | Sub Eng
Українізований та альтернативні постери і обкладинки:







Жанр: комедія
Країна: Франція



Кіностудія / кінокомпанія: Fideline Films, Les Productions de la Guéville
Режисер: Ів Робер / Yves Robert
Актори: П'єр Рішар / Pierre Richard, Жан-П'єр Кальфон / Jean-Pierre Kalfon, Камілла Мор / Camilla More, Керрі Мор / Carey More, Андреа Ферреоль / Andrea Ferreol, Жак Франц / Jacques Frantz, Жан-П'єр Кастальді / Jean-Pierre Castaldi , Поль Ле Персон / Paul Le Person та інші

Сюжет:
Програвши в карти усе своє майно, Маттіас Дюваль шукає притулку в товариша, що мешкає в курортному містечку на Лазурному березі. Там він знайомиться з привабливою блондинкою-американкою, багатою спадкоємицею на ім'я Ліз Кернер. Коли виявилося, що Ліз має сестру-близнюка Бетті, Маттіас експромтом видумує, що у нього теж є брат-близнюк. Гравець за натурою, він стає коханцем обох сестер, прикидаючись своїм братом-близнюком із другою з них, Бетті. Труднощі починаються, коли обидві сестри пропонують йому одружитися. А тим часом адвокат родини Кернерів Ернест Вольпінекс намагається зруйнувати їхні плани й позбутися авантюриста Дюваля.


Тривалість: 01:49:32
Якість: 720p
Відео:
кодек:
розмір кадру: 1196x720
бітрейт: 6021 кб/с

Аудіо # 1:
мова: українська
переклад: двоголосий закадровий
кодек: 2.0 (з 5.1)
бітрейт: 192 кб/с
ролі озвучили: Дмитро Завадський та Юлія Перенчук

Аудіо # 2:
мова: українська
переклад: двоголосий закадровий
кодек: 2.0 (з 5.1)
бітрейт: 192 кб/с
ролі озвучили: Анатолій Пашнін та Олена Узлюк

Аудіо # 3:
мова: французька
переклад: оригінал
кодек: 2.0
бітрейт: 192 кб/с

Субтитри:
мова: англійська
тип: програмні (м'які)
формат: *.srt

Збережено оригінальні розділи, як на Blu-ray
Info
Код:
Complete name               : Le jumeau (1984) [2xUkr,Eng sub.Eng] 720p [Hurtom].
Format                      :
Format version              : Version 4 / Version 2
File size                   : 5.05 GiB
Duration                    : 1 h 49 min
Overall bit rate            : 6 600 kb/s
Movie name                  : Близнюк / The Twin / Le jumeau (1984) [2xUkr,Eng sub.Eng] 720p [Hurtom]
Encoded date                : UTC 2018-07-08 13:18:50
Writing application         : v24.0.0 ('Beyond The Pale') 64-bit
Writing library             : libebml v1.3.6 + v1.4.9
Cover                       : Yes
Attachments                 : cover.jpg

Video
ID                          : 1
Format                      : AVC
Format/Info                 : Advanced Video Codec
Format profile              : [email protected]
Format settings             : CABAC / 9 Ref Frames
Format settings, CABAC      : Yes
Format settings, ReFrames   : 9 frames
Codec ID                    : V_MPEG4/ISO/AVC
Duration                    : 1 h 49 min
Bit rate                    : 6 021 kb/s
Width                       : 1 196 pixels
Height                      : 720 pixels
Display aspect ratio        : 5:3
Frame rate mode             : Constant
Frame rate                  : 24.000 FPS
Color space                 : YUV
Chroma subsampling          : 4:2:0
Bit depth                   : 8 bits
Scan type                   : Progressive
Bits/(Pixel*Frame)          : 0.291
Stream size                 : 4.61 GiB (91%)
Title                       : Близнюк / The Twin / Le jumeau (1984) 720p [msltel]
Writing library             : core 146 r2538 121396c
Encoding settings           : cabac=1 / ref=9 / deblock=1:-3:-2 / analyse=0x3:0x113 / me=umh / subme=11 / psy=1 / psy_rd=1.00:0.15 / mixed_ref=1 / me_range=32 / chroma_me=1 / trellis=2 / 8x8dct=1 / cqm=0 / deadzone=21,11 / fast_pskip=0 / chroma_qp_offset=-3 / threads=6 / lookahead_threads=1 / sliced_threads=0 / nr=0 / decimate=1 / interlaced=0 / bluray_compat=0 / constrained_intra=0 / bframes=7 / b_pyramid=2 / b_adapt=2 / b_bias=0 / direct=1 / weightb=1 / open_gop=0 / weightp=2 / keyint=230 / keyint_min=23 / scenecut=40 / intra_refresh=0 / rc_lookahead=40 / rc=crf / mbtree=0 / crf=19.0 / qcomp=0.60 / qpmin=0 / qpmax=69 / qpstep=4 / vbv_maxrate=62500 / vbv_bufsize=78125 / crf_max=0.0 / nal_hrd=none / filler=0 / ip_ratio=1.40 / pb_ratio=1.30 / aq=1:1.00
Language                    : French
Default                     : Yes
Forced                      : No

Audio #1
ID                          : 2
Format                      : AC-3
Format/Info                 : Audio Coding 3
Codec ID                    : A_AC3
Duration                    : 1 h 49 min
Bit rate mode               : Constant
Bit rate                    : 192 kb/s
Channel(s)                  : 2 channels
Channel positions           : Front: L R
Sampling rate               : 48.0 kHz
Frame rate                  : 31.250 FPS (1536 SPF)
Bit depth                   : 16 bits
Compression mode            : Lossy
Stream size                 : 150 MiB (3%)
Title                       : DVO [2+2] 2.0 192 Kbps [Hurtom]
Language                    : Ukrainian
Service kind                : Complete Main
Default                     : Yes
Forced                      : Yes

Audio #2
ID                          : 3
Format                      : AC-3
Format/Info                 : Audio Coding 3
Codec ID                    : A_AC3
Duration                    : 1 h 49 min
Bit rate mode               : Constant
Bit rate                    : 192 kb/s
Channel(s)                  : 2 channels
Channel positions           : Front: L R
Sampling rate               : 48.0 kHz
Frame rate                  : 31.250 FPS (1536 SPF)
Bit depth                   : 16 bits
Compression mode            : Lossy
Stream size                 : 150 MiB (3%)
Title                       : DVO [NTN] 2.0 192 Kbps [Hurtom]
Language                    : Ukrainian
Service kind                : Complete Main
Default                     : No
Forced                      : No

Audio #3
ID                          : 4
Format                      : AC-3
Format/Info                 : Audio Coding 3
Codec ID                    : A_AC3
Duration                    : 1 h 49 min
Bit rate mode               : Constant
Bit rate                    : 192 kb/s
Channel(s)                  : 2 channels
Channel positions           : Front: L R
Sampling rate               : 48.0 kHz
Frame rate                  : 31.250 FPS (1536 SPF)
Bit depth                   : 16 bits
Compression mode            : Lossy
Stream size                 : 150 MiB (3%)
Title                       : Original, 2.0 192 Kbps
Language                    : French
Service kind                : Complete Main
Default                     : No
Forced                      : No

Text
ID                          : 5
Format                      : UTF-8
Codec ID                    : S_TEXT/UTF8
Codec ID/Info               : UTF-8 Plain Text
Duration                    : 1 h 47 min
Bit rate                    : 66 b/s
Count of elements           : 1269
Stream size                 : 52.1 KiB (0%)
Language                    : English
Default                     : No
Forced                      : No




Джерело: &
Українські доріжки: Technomate, ua2004, _oles, igor911; українізований постер: d1mma, інформація про озвучення: w2958l.


Срібний реліз (на рейтинг впливає 50% завантаженого)
 Трекер:    Зареєстрований   

Завантажити / скачати фільм українською



відео для новачків



 Зареєстрований:   2018-07-08 16:51
 Розмір:   5.05 GB 
 Оцінка фільму:   9.3/10 (Голосів: 8)
   
Інші релізи
   Близнюк (The Twin) / Le jumeau (1984) 2xUkr/Fra igor911  5 / 0   1.7 GB   2018-07-08 17:37 
Ваш часовий пояс: GMT + 2 Години

Нова тема   Відповісти