Уламки минулого / Blue Ruin / (2013) 720р Eng | sub Ukr

Нові коментарі

Нова тема   Відповісти
Останній раз роздавалося olenka 32 (2020-10-15)
Автор Повідомлення
ukrrku 
Частий відвідувач


З нами з: 24.03.09
Востаннє: 15.11.20
Повідомлень: 25

2018-07-08 13:55  
Уламки минулого / Blue Ruin / (2013) 720р Eng | sub Ukr

Уламки минулого / Blue Ruin / (2013) 720р Eng | sub Ukr


Жанр: трилер, драма
Країна: США



Кінокомпанія: Film Science, Neighborhood Watch, Paradise City, The Lab of Madness
Режисер: Джеремі Солн'є
Актори: Макон Блер, Девін Ретрей, Емі Харгрівз, Кевін Колак, Ів Пламб, Девід В. Томпсон, Стейсі Рок

Сюжет:
Спокійне життя таємничого відлюдника перевертається з ніг на голову, коли він повертається туди, де провів дитинство, бажаючи помститися. Він вплутується в жорстоку боротьбу, щоб захистити свою сім'ю ...


Тривалість: 01:30:23
Якість:
Відео:
кодек:
розмір кадру: 1280 х 536
бітрейт: 3453 кб/с

Аудіо:
мова: англійська
переклад: оригінал
кодек: 5.1
бітрейт: 640 кб/с

Субтитри:
мова: українська (власний переклад)
тип: програмні (м'які)
формат: *.srt
Скріншоти





Info

General
Unique ID : 20693770929295652365687619453018735618 (0xF9179ADE22ED081608CF9196DE88402)
Complete name : D:\video\Blue.Ruin.2013.720p.BluRay.DD5.1..
Format :
Format version : Version 4 / Version 2
File size : 2.59 GiB
Duration : 1 h 30 min
Overall bit rate : 4 094 kb/s
Encoded date : UTC 2018-07-08 11:11:56
Writing application : v20.0.0 ('I Am The Sun') 64-bit
Writing library : libebml v1.3.5 + v1.4.8 / Lavf57.25.100

Video
ID : 1
Format : AVC
Format/Info : Advanced Video Codec
Format profile : [email protected]
Format settings : CABAC / 4 Ref Frames
Format settings, CABAC : Yes
Format settings, ReFrames : 4 frames
Codec ID : V_MPEG4/ISO/AVC
Duration : 1 h 30 min
Bit rate : 3 453 kb/s
Width : 1 280 pixels
Height : 536 pixels
Display aspect ratio : 2.40:1
Frame rate mode : Constant
Frame rate : 23.976 (24000/1001) FPS
Color space : YUV
Chroma subsampling : 4:2:0
Bit depth : 8 bits
Scan type : Progressive
Bits/(Pixel*Frame) : 0.210
Stream size : 2.18 GiB (84%)
Writing library : core 146 r2538 121396c
Encoding settings : cabac=1 / ref=3 / deblock=1:0:0 / analyse=0x3:0x133 / me=hex / subme=7 / psy=1 / psy_rd=1.00:0.00 / mixed_ref=1 / me_range=16 / chroma_me=1 / trellis=1 / 8x8dct=1 / cqm=0 / deadzone=21,11 / fast_pskip=1 / chroma_qp_offset=-2 / threads=6 / lookahead_threads=1 / sliced_threads=0 / nr=0 / decimate=1 / interlaced=0 / bluray_compat=0 / constrained_intra=0 / bframes=3 / b_pyramid=2 / b_adapt=1 / b_bias=0 / direct=1 / weightb=1 / open_gop=0 / weightp=2 / keyint=250 / keyint_min=25 / scenecut=40 / intra_refresh=0 / rc_lookahead=40 / rc=2pass / mbtree=1 / bitrate=3453 / ratetol=1.0 / qcomp=0.60 / qpmin=10 / qpmax=51 / qpstep=4 / cplxblur=20.0 / qblur=0.5 / ip_ratio=1.40 / aq=1:1.00
Default : Yes
Forced : No

Audio
ID : 2
Format : AC-3
Format/Info : Audio Coding 3
Codec ID : A_AC3
Duration : 1 h 30 min
Bit rate mode : Constant
Bit rate : 640 kb/s
Channel(s) : 6 channels
Channel positions : Front: L C R, Side: L R, LFE
Sampling rate : 48.0 kHz
Frame rate : 31.250 FPS (1536 SPF)
Bit depth : 16 bits
Compression mode : Lossy
Stream size : 414 MiB (16%)
Language : English
Service kind : Complete Main
Default : Yes
Forced : No

Text
ID : 3
Format : UTF-8
Codec ID : S_TEXT/UTF8
Codec ID/Info : UTF-8 Plain Text
Duration : 1 h 25 min
Bit rate : 42 b/s
Count of elements : 584
Stream size : 26.3 KiB (0%)
Title : Українські субтитри
Language : Ukrainian
Default : Yes
Forced : No
Джерело:
Особиста оцінка: 7 - моїй подрузі не сподобалося


Золотий реліз (завантажене не впливає на рейтинг)
 Трекер:    Зареєстрований   

Завантажити / скачати фільм українською



відео для новачків



 Зареєстрований:   2018-07-08 13:55
 Розмір:   2.59 GB 
 Оцінка фільму:   6/10 (Голосів: 2)
   
ukrrku 
Частий відвідувач


З нами з: 24.03.09
Востаннє: 15.11.20
Повідомлень: 25

2018-07-08 15:08  
Перепрошую! Помилився темою(
Тут нема української доріжки!
Треба перенести в субтитри

bot 
робот


З нами з: 30.09.07
Востаннє: 26.05.05
Повідомлень: 26447

2018-07-08 19:31  
Тему перенесено з Фільми до форуму Фільми


11FrYkT

hetzendorf 
Попереджень: 2
Попереджень: 2 


З нами з: 23.07.15
Востаннє: 03.12.20
Повідомлень: 2941

2018-07-08 23:35  
Колись я це бачив, але геть забув, хоч і поставив 6/10 на imdb. Мабуть на 1 раз кіно.
Ваш часовий пояс: GMT + 2 Години

Нова тема   Відповісти