Непрохані гості / Вторжники / Intruders (2011) AVC Ukr/Eng | Sub Eng

Нові коментарі

Нова тема   Відповісти
Автор Повідомлення
staf777 
Попереджень: 1
Попереджень: 1 


З нами з: 16.11.16
Востаннє: 17.11.18
Повідомлень: 1753

2018-07-08 09:48  
Непрохані гості / Вторжники / Intruders (2011) AVC Ukr/Eng | Sub Eng

Непрохані гості / Вторжники / Intruders (2011) AVC Ukr/Eng | Sub Eng


Жанр: жахи, фентезі, трилер
Країна: США, Велика Британія, Іспанія



Кінокомпанія: Universal Pictures International, Canal +, Millennium Films
Режисер: Хуан Карлос Фреснадільйо
Актори: Клайв Оуен, Керіс Ван Хаутен, Данієль Брюль, Елла Пурнелл, Керрі Фокс

Сюжет:
У Мадриді 8-річний хлопчик Хуан розповідає батькам моторошні історії. Його мати, Луїза, припускає, що багата уява, підживлена яскравими і реалістичними нічними кошмарами, є основною причиною порушення сну і психічного надлому дитини. Однак Хуан продовжує наполягати на тому, що страшні істоти зовсім не плід його хворої уяви. У той же час в Лондоні 11-річна Міа розповідає однолітками страхітливі історії про інфернальне чудовисько, яке шукає контакту зі світом людей через кімнату маленького хлопчика десь в материковій частині Європи...


Тривалість: 01:39:59
Якість: AVC [Blu-ray]
Відео:
кодек:
розмір кадру: 1048x448
бітрейт: 2354 кб/с

Аудіо # 1:
мова: українська
переклад: багатоголосий закадровий
кодек: 2.0
бітрейт: 192 кб/с

Аудіо # 2:
мова: англійська
переклад: оригінал
кодек: 5.1
бітрейт: 384 кб/с

Джерело озвучення:


Субтитри # 1-2:
мова: англійська
тип: програмні (м'які)
формат: *.srt
Info
General
Unique ID : 273739623790705977116192715873389362729 (0xCDF05576B1BF8489D57B24FB62E3BE29)
Complete name : D:\Майбутні релізи\Intruders (2011) AVC [UKR_ENG] [Hurtom].
Format :
Format version : Version 4 / Version 2
File size : 2.05 GiB
Duration : 1 h 39 min
Overall bit rate : 2 930 kb/s
Movie name : Intruders (2011) AVC [UKR_ENG] [Hurtom]
Encoded date : UTC 2018-07-08 14:46:57
Writing application : v24.0.0 ('Beyond The Pale') 64-bit
Writing library : libebml v1.3.6 + v1.4.9
Cover : Yes
Attachments : cover.jpg

Video
ID : 1
Format : AVC
Format/Info : Advanced Video Codec
Format profile : [email protected]
Format settings : CABAC / 9 Ref Frames
Format settings, CABAC : Yes
Format settings, ReFrames : 9 frames
Codec ID : V_MPEG4/ISO/AVC
Duration : 1 h 39 min
Bit rate : 2 354 kb/s
Width : 1 048 pixels
Height : 448 pixels
Display aspect ratio : 2.35:1
Original display aspect rat : 2.35:1
Frame rate mode : Constant
Frame rate : 23.976 (24000/1001) FPS
Color space : YUV
Chroma subsampling : 4:2:0
Bit depth : 8 bits
Scan type : Progressive
Bits/(Pixel*Frame) : 0.209
Stream size : 1.64 GiB (80%)
Title : Pozhyrateli.2011.D...potroks
Writing library : core 116 r2019M 9cc407d
Encoding settings : cabac=1 / ref=10 / deblock=1:-2:-2 / analyse=0x3:0x133 / me=umh / subme=9 / psy=1 / psy_rd=1.00:0.00 / mixed_ref=1 / me_range=32 / chroma_me=1 / trellis=1 / 8x8dct=1 / cqm=0 / deadzone=21,13 / fast_pskip=0 / chroma_qp_offset=-2 / threads=8 / sliced_threads=0 / nr=0 / decimate=1 / interlaced=0 / bluray_compat=0 / constrained_intra=0 / bframes=8 / b_pyramid=1 / b_adapt=2 / b_bias=0 / direct=3 / weightb=1 / open_gop=0 / weightp=2 / keyint=230 / keyint_min=23 / scenecut=40 / intra_refresh=0 / rc_lookahead=80 / rc=2pass / mbtree=1 / bitrate=2354 / ratetol=1.0 / qcomp=0.60 / qpmin=10 / qpmax=53 / qpstep=4 / cplxblur=20.0 / qblur=0.7 / ip_ratio=1.40 / aq=1:1.20
Language : English
Default : Yes
Forced : No

Audio #1
ID : 2
Format : AC-3
Format/Info : Audio Coding 3
Codec ID : A_AC3
Duration : 1 h 39 min
Bit rate mode : Constant
Bit rate : 192 kb/s
Channel(s) : 2 channels
Channel positions : Front: L R
Sampling rate : 48.0 kHz
Frame rate : 31.250 FPS (1536 SPF)
Bit depth : 16 bits
Compression mode : Lossy
Stream size : 137 MiB (7%)
Title : [UA-MVO-NLO]
Language : Ukrainian
Service kind : Complete Main
Default : Yes
Forced : Yes

Audio #2
ID : 3
Format : AC-3
Format/Info : Audio Coding 3
Codec ID : A_AC3
Duration : 1 h 39 min
Bit rate mode : Constant
Bit rate : 384 kb/s
Channel(s) : 6 channels
Channel positions : Front: L C R, Side: L R, LFE
Sampling rate : 48.0 kHz
Frame rate : 31.250 FPS (1536 SPF)
Bit depth : 16 bits
Compression mode : Lossy
Stream size : 275 MiB (13%)
Title : Original
Language : English
Service kind : Complete Main
Default : No
Forced : No

Text #1
ID : 4
Format : UTF-8
Codec ID : S_TEXT/UTF8
Codec ID/Info : UTF-8 Plain Text
Duration : 1 h 33 min
Bit rate : 33 b/s
Count of elements : 822
Stream size : 22.9 KiB (0%)
Language : English
Default : No
Forced : No

Text #2
ID : 5
Format : UTF-8
Codec ID : S_TEXT/UTF8
Codec ID/Info : UTF-8 Plain Text
Duration : 1 h 34 min
Bit rate : 37 b/s
Count of elements : 993
Stream size : 25.9 KiB (0%)
Title : SDH
Language : English
Default : No
Forced : No

Menu
00:00:00.000 : en:00:00:00.000
00:08:09.656 : en:00:08:09.656
00:15:37.645 : en:00:15:37.645
00:23:58.228 : en:00:23:58.228
00:33:49.402 : en:00:33:49.402
00:44:55.985 : en:00:44:55.985
00:50:50.714 : en:00:50:50.714
00:58:30.507 : en:00:58:30.507
01:06:43.291 : en:01:06:43.291
01:16:32.004 : en:01:16:32.004
01:21:19.708 : en:01:21:19.708
01:34:34.294 : en:01:34:34.294
Скріншоти




Джерело: &
Особиста оцінка: 0 - не дивився


 Трекер:    Зареєстрований   

Завантажити / скачати фільм українською



відео для новачків



 Зареєстрований:   2018-07-08 17:32
 Розмір:   2.05 GB 
 Оцінка фільму:   7.8/10 (Голосів: 5)
   
Інші релізи
bot 
робот


З нами з: 30.09.07
Востаннє: 26.05.05
Повідомлень: 20153

2018-07-08 09:49  
Тему перенесено з Фільми до форуму Анонси релізів


staf777

gjtguhgtfr 
Новенький


З нами з: 05.05.18
Востаннє: 17.11.18
Повідомлень: 1

2018-07-08 11:54  

bot 
робот


З нами з: 30.09.07
Востаннє: 26.05.05
Повідомлень: 20153

2018-07-08 17:32  
Тему перенесено з Анонси релізів до форуму Фільми


staf777

Ваш часовий пояс: GMT + 2 Години

Нова тема   Відповісти