Таємнича річка (ріка) / Mystic River (2003) AVC 2xUkr/Eng | Sub Eng

Нові коментарі

Нова тема   Відповісти
Автор Повідомлення
staf777 
Попереджень: 1
Попереджень: 1 


З нами з: 16.11.16
Востаннє: 24.09.18
Повідомлень: 1521

2018-07-08 08:19  
Таємнича річка / Таємнича ріка / Mystic River (2003) AVC 2xUkr/Eng | Sub Eng

Таємнича річка (ріка) / Mystic River (2003) AVC 2xUkr/Eng | Sub Eng
Альтернативний постер та оригінальна обкладинка:





Жанр: трилер, драма, кримінальний, детектив
Країна: США, Австралія



Кінокомпанія: Warner Bros. Pictures, Village Roadshow Pictures, NPV Entertainment
Режисер: Клінт Іствуд (Clint Eastwood)
Актори: Шон Пенн (Sean Penn), Тім Роббінс (Tim Robbins), Кевін Бейкон (Kevin Bacon), Лоуренс Фішберн (Laurence Fishburne), Марша Ґей Гарден (Marcia Gay Harden), Кевін Чепмен (Kevin Chapman), Еммі Россум (Emmy Rossum), Лора Лінні (Laura Linney) та інші.

Сюжет:
Дейва (Роббінс), Джиммі (Пенн) та Шона (Бейкон), які колись були приятелями, переслідують жахливі спогади. У дитинстві Дейва викрав сексуальний маніяк, і те, що йому довелось пережити, назавжди залишилось у його пам’яті. Коли вбивають Кеті, дочку Джиммі, Дейв стає головним підозрюваним, а вести розслідування доручають Шону...
Цікаві факти про фільм

• Зйомки картини зайняли 39 днів.
• Клінту Іствуду належить закадровий голос в рекламному ролику (трейлері) до фільму.
• Денніс Лігейн, автор роману «Таємнича річка» отримав епізодичну роль в картині (камео). Він бере участь у сцені параду, махає рукою, перебуваючи в автомобілі з відкидним верхом.
• Фільм, який Дейв дивиться по телевізору, носить назву «Вампіри» (1998) з Джеймсом Вудсом і Шеріл Лі в головних ролях.
• Епізодична роль в картині дісталася і Елі Воллаху. Він зіграв власника алкогольної лавки. Елі не брав участі у фільмах Іствуда з моменту виходу картини «Хороший, поганий, злий» (1966).
• Прізвище Джиммі і його родини була змінена з Маркуса (першоджерело) на Маркум.
• На початку фільму в епізоді, в якому юного Дейва кидають на заднє сидіння автомобіля, людина попереду розвертається і виблискує своїм кільцем - кільцем священика. У книзі немає ні найменшої згадки про те, що цей персонаж був священиком. Цей момент був навмисно доданий у фільм після з'ясування обставин скандалу, що розгорівся в Бостонській єпархії архієпископа. Її голова, Бернард Ло, виявився замішаним в історії, пов'язаній із замовчуванням випадків сексуальних домагань з боку священиків.
• Бюджет: $30,000,000.
Тривалість: 02:17:56
Якість: AVC
Відео:
кодек:
розмір кадру: 1076x448
бітрейт: 2253 кб/с

Аудіо # 1:
мова: українська
переклад: багатоголосий закадровий
кодек: 5.1
бітрейт: 384 кб/с
Інформація про озвучення:
Озвучено студією 1+1
Переклад: Дмитра Колючого
Літературний редактор: Ольга Чернілевська
Звукорежисер: Віктор Коляда
Режисер: Сергій Гаврилюк
Ролі озвучили: Лідія Муращенко, Євген Нищук і Андрій Бурлуцький
Аудіо # 2:
мова: українська
переклад: багатоголосий закадровий
кодек: 5.1
бітрейт: 384 кб/с
Інформація про озвучення:
Озвучено студією Так Треба Продакшн
Ролі озвучили: Шон Пенн - Юрій Гребельник та інші
Аудіо # 3:
мова: англійська
переклад: оригінал
кодек: 5.1
бітрейт: 384 кб/с

Субтитри:
мова: англійська
тип: програмні (м'які)
формат: *.srt
Info
General
Unique ID : 200811933509549533548073456566769845487 (0x9712F8BA5C430C34BEC614835AEC84EF)
Complete name : H:\Mystic River (2003) AVC [2xUKR_ENG] [Hurtom].
Format :
Format version : Version 4 / Version 2
File size : 3.28 GiB
Duration : 2 h 17 min
Overall bit rate : 3 408 kb/s
Movie name : Mystic River (2003) Mystic River (2003) AVC
Encoded date : UTC 2018-07-08 04:30:55
Writing application : v24.0.0 ('Beyond The Pale') 64-bit
Writing library : libebml v1.3.6 + v1.4.9
Cover : Yes
Attachments : cover.jpg

Video
ID : 1
Format : AVC
Format/Info : Advanced Video Codec
Format profile : [email protected]
Format settings : CABAC / 10 Ref Frames
Format settings, CABAC : Yes
Format settings, ReFrames : 10 frames
Codec ID : V_MPEG4/ISO/AVC
Duration : 2 h 17 min
Bit rate : 2 253 kb/s
Width : 1 076 pixels
Height : 448 pixels
Display aspect ratio : 2.40:1
Frame rate mode : Constant
Frame rate : 23.976 (24000/1001) FPS
Color space : YUV
Chroma subsampling : 4:2:0
Bit depth : 8 bits
Scan type : Progressive
Bits/(Pixel*Frame) : 0.195
Stream size : 2.17 GiB (66%)
Title : potroks
Writing library : core 152 r2851M ba24899
Encoding settings : cabac=1 / ref=10 / deblock=1:-2:-2 / analyse=0x3:0x132 / me=umh / subme=11 / psy=1 / psy_rd=0.00:0.05 / mixed_ref=1 / me_range=48 / chroma_me=1 / trellis=2 / 8x8dct=1 / cqm=0 / deadzone=21,11 / fast_pskip=0 / chroma_qp_offset=-1 / threads=9 / lookahead_threads=2 / sliced_threads=0 / nr=0 / decimate=0 / interlaced=0 / bluray_compat=0 / constrained_intra=0 / bframes=12 / b_pyramid=2 / b_adapt=2 / b_bias=0 / direct=3 / weightb=1 / open_gop=0 / weightp=2 / keyint=240 / keyint_min=23 / scenecut=40 / intra_refresh=0 / rc_lookahead=0 / rc=2pass / mbtree=0 / bitrate=2253 / ratetol=1.0 / qcomp=0.70 / qpmin=0 / qpmax=69 / qpstep=4 / cplxblur=20.0 / qblur=0.5 / vbv_maxrate=62500 / vbv_bufsize=44642 / nal_hrd=none / filler=0 / ip_ratio=1.40 / pb_ratio=1.30 / aq=1:0.80
Language : English
Default : Yes
Forced : No
Color range : Limited
Color primaries : BT.709
Transfer characteristics : BT.709
Matrix coefficients : BT.709

Audio #1
ID : 2
Format : AC-3
Format/Info : Audio Coding 3
Codec ID : A_AC3
Duration : 2 h 17 min
Bit rate mode : Constant
Bit rate : 384 kb/s
Channel(s) : 6 channels
Channel positions : Front: L C R, Side: L R, LFE
Sampling rate : 48.0 kHz
Frame rate : 31.250 FPS (1536 SPF)
Bit depth : 16 bits
Compression mode : Lossy
Stream size : 379 MiB (11%)
Title : [UA-MVO-1+1]
Language : Ukrainian
Service kind : Complete Main
Default : Yes
Forced : Yes

Audio #2
ID : 3
Format : AC-3
Format/Info : Audio Coding 3
Codec ID : A_AC3
Duration : 2 h 17 min
Bit rate mode : Constant
Bit rate : 384 kb/s
Channel(s) : 6 channels
Channel positions : Front: L C R, Side: L R, LFE
Sampling rate : 48.0 kHz
Frame rate : 31.250 FPS (1536 SPF)
Bit depth : 16 bits
Compression mode : Lossy
Stream size : 379 MiB (11%)
Title : [UA-MVO-K-1]
Language : Ukrainian
Service kind : Complete Main
Default : No
Forced : No

Audio #3
ID : 4
Format : AC-3
Format/Info : Audio Coding 3
Codec ID : A_AC3
Duration : 2 h 17 min
Bit rate mode : Constant
Bit rate : 384 kb/s
Channel(s) : 6 channels
Channel positions : Front: L C R, Side: L R, LFE
Sampling rate : 48.0 kHz
Frame rate : 31.250 FPS (1536 SPF)
Bit depth : 16 bits
Compression mode : Lossy
Stream size : 379 MiB (11%)
Title : Original | DD 5.1 @ 384 kbps
Language : English
Service kind : Complete Main
Default : No
Forced : No

Text
ID : 5
Format : UTF-8
Codec ID : S_TEXT/UTF8
Codec ID/Info : UTF-8 Plain Text
Duration : 2 h 11 min
Bit rate : 65 b/s
Count of elements : 1697
Stream size : 63.1 KiB (0%)
Title : SDH
Language : English
Default : No
Forced : No

Menu
00:00:00.000 : :Three Friends
00:03:18.490 : :Driven Away
00:06:07.784 : :A Boy's Ordeal
00:08:05.902 : :Someone's Father
00:12:21.616 : :One of These Days
00:14:36.542 : :Covered in Blood
00:18:38.409 : :Missing
00:23:32.077 : :World of Hurt
00:28:04.850 : :Collected Marker
00:32:45.630 : :My Daughter in There?!?
00:35:03.851 : :Katie's Look
00:40:37.226 : :Jimmy's Look; Lauren's Call
00:42:41.601 : :Domestic Responsibilities
00:47:00.943 : :Crying for Katie
00:51:26.792 : :Questioning Brendan
00:53:58.277 : :Getting My Head Right
01:00:09.481 : :Serious Look at Dave
01:05:17.372 : :Beloved Daughter
01:07:59.492 : :Celeste in a Hurry
01:10:52.874 : :Speaking for Katie
01:15:30.901 : :The Liquor Store
01:17:22.555 : :Like Vampires
01:23:14.990 : :From Friend to Liability
01:26:24.262 : :Bloody Explanation
01:30:53.573 : :Hits Keep on Coming
01:36:32.537 : :What Celeste Thinks
01:40:12.089 : :Questioning Brendan
01:42:46.118 : :The 911 Call
01:45:33.452 : :Drinks With Dave
01:49:29.688 : :No More Secrets
01:55:41.309 : :"I Want Him Dead!"
01:57:36.675 : :We Bury Our Sins
02:00:10.787 : :The Last Time I Saw Dave
02:05:49.500 : :The King's Wife
02:10:15.891 : :Passing Parade
02:12:52.840 : :End Credits
Скріншоти




Подяки: панам dvorsky, robotron005, imonko за доріжки та hellforces, Воїн за постери
Джерело: &
Особиста оцінка: 0 - не дивився


Срібний реліз (на рейтинг впливає 50% завантаженого)
 Трекер:    Зареєстрований   

Завантажити / скачати фільм українською



відео для новачків



 Зареєстрований:   2018-07-08 08:19
 Розмір:   3.28 GB 
 Оцінка фільму:   8.1/10 (Голосів: 16)
   
Інші релізи
The Darknesss 
Новенький


З нами з: 29.03.17
Востаннє: 24.09.18
Повідомлень: 8

2018-07-09 18:04  
Що гра акторів , що сценарій мусор .

Рейтинг 8.0 за що постпавлено , за Клінта Іствуда напевно .

yasav 
Свій


З нами з: 05.12.17
Востаннє: 23.09.18
Повідомлень: 94

2018-07-10 14:55  
Цитата:
Що гра акторів , що сценарій мусор .

Геніальна аргументація Rolleyes (4)

pvm 
Поважний учасник


З нами з: 05.03.10
Востаннє: 24.09.18
Повідомлень: 204

2018-07-14 01:18  
Декілька слів, а скільки інформації про людину.
tpolit 
VIP


З нами з: 10.01.15
Востаннє: 24.09.18
Повідомлень: 335

2018-07-15 11:55  
Крутий фільм, крута гра акторів та сценарій. Дивіться обов'язково. 10 з 10.
Maters 
VIP


З нами з: 27.03.12
Востаннє: 23.09.18
Повідомлень: 1506

2018-08-21 23:22  
Сюжет цікавий, хоча я доволі швидко зрозумів хто вбив малу. Актори загалом теж непогані, але Шон Пенн надто скупий на емоції і це трохи підпсувало загальне враження. Не шедевр, але свого рейтингу фільм заслуговує.
Ваш часовий пояс: GMT + 2 Години

Нова тема   Відповісти