Шалена карта / Wild Card (2015) AVC Ukr/Eng | Sub Eng

Нові коментарі

Нова тема   Відповісти
Автор Повідомлення
staf777 
Попереджень: 1
Попереджень: 1 


З нами з: 16.11.16
Востаннє: 17.11.18
Повідомлень: 1753

2018-07-08 05:19  
Шалена карта / Wild Card (2015) AVC Ukr/Eng | Sub Eng

Шалена карта / Wild Card (2015) AVC Ukr/Eng | Sub Eng


Жанр: бойовик, кримінальний, трилер, драма
Країна: США



Кінокомпанія: Lionsgate, SJ Heat Productions, Sierra / Affinity
Режисер: Саймон Вест
Актори: Джейсон Стетгем, Майкл Анґарано, Домінік Гарсіа-Лорідо, Гоуп Девіс, Майло Вентимілья, Макс Каселла, Стенлі Туччі, Софія Верґара, Джейсон Александр, Енн Геч, Кріс Браунінґ

Сюжет:
Головний герой — колишній військовий Нік Ескаланте — працює у Лас-Вегасі охоронцем і мріє назбирати грошей, щоб назавжди поїхати до Венеції. Але одного разу Нік погоджується допомогти повії Голлі, яка стала жертвою насилля сина одного серйозного гангстера. У зв'язку із цим його омріяна подорож трохи відкладається...


Тривалість: 01:32:20
Якість: AVC
Відео:
кодек:
розмір кадру: 1100x456
бітрейт: 2484 кб/с

Аудіо # 1:
мова: українська
переклад: багатоголосий закадровий
кодек: 2.0
бітрейт: 192 кб/с

Аудіо # 2:
мова: англійська
переклад: оригінал
кодек: 5.1
бітрейт: 448 кб/с

Джерело озвучення:


Субтитри # 1-3:[Full-SDH-SDH-Colored]
мова: англійська
тип: програмні (м'які)
формат: *.srt
Info
General
Unique ID : 23742376193653309841223641101224444081 (0x11DC9D860502910309697DF4BF4D00B1)
Complete name : G:\Майбутні релізи\Wild Card (2015) AVC [UKR_ENG] [Hurtom].
Format :
Format version : Version 4 / Version 2
File size : 2.01 GiB
Duration : 1 h 32 min
Overall bit rate : 3 122 kb/s
Movie name : Wild Card (2015) AVC [UKR_ENG] [Hurtom]
Encoded date : UTC 2018-07-08 03:05:22
Writing application : v24.0.0 ('Beyond The Pale') 64-bit
Writing library : libebml v1.3.6 + v1.4.9
Cover : Yes
Attachments : cover.jpg

Video
ID : 1
Format : AVC
Format/Info : Advanced Video Codec
Format profile : [email protected]
Format settings : CABAC / 10 Ref Frames
Format settings, CABAC : Yes
Format settings, ReFrames : 10 frames
Codec ID : V_MPEG4/ISO/AVC
Duration : 1 h 32 min
Bit rate : 2 484 kb/s
Width : 1 100 pixels
Height : 456 pixels
Display aspect ratio : 2.40:1
Frame rate mode : Constant
Frame rate : 23.976 FPS
Color space : YUV
Chroma subsampling : 4:2:0
Bit depth : 8 bits
Scan type : Progressive
Bits/(Pixel*Frame) : 0.207
Stream size : 1.60 GiB (79%)
Title : potroks
Writing library : core 146 r2538 121396c
Encoding settings : cabac=1 / ref=10 / deblock=1:-2:-2 / analyse=0x3:0x113 / me=umh / subme=11 / psy=1 / psy_rd=0.98:0.05 / mixed_ref=1 / me_range=48 / chroma_me=1 / trellis=2 / 8x8dct=1 / cqm=0 / deadzone=21,11 / fast_pskip=0 / chroma_qp_offset=-3 / threads=9 / lookahead_threads=2 / sliced_threads=0 / nr=0 / decimate=0 / interlaced=0 / bluray_compat=0 / constrained_intra=0 / bframes=11 / b_pyramid=2 / b_adapt=2 / b_bias=0 / direct=3 / weightb=1 / open_gop=0 / weightp=2 / keyint=240 / keyint_min=23 / scenecut=40 / intra_refresh=0 / rc_lookahead=60 / rc=2pass / mbtree=0 / bitrate=2484 / ratetol=1.0 / qcomp=0.70 / qpmin=0 / qpmax=69 / qpstep=4 / cplxblur=20.0 / qblur=0.5 / vbv_maxrate=14000 / vbv_bufsize=14000 / nal_hrd=none / filler=0 / ip_ratio=1.40 / pb_ratio=1.30 / aq=1:0.70
Language : English
Default : Yes
Forced : No

Audio #1
ID : 2
Format : AC-3
Format/Info : Audio Coding 3
Codec ID : A_AC3
Duration : 1 h 32 min
Bit rate mode : Constant
Bit rate : 192 kb/s
Channel(s) : 2 channels
Channel positions : Front: L R
Sampling rate : 48.0 kHz
Frame rate : 31.250 FPS (1536 SPF)
Bit depth : 16 bits
Compression mode : Lossy
Stream size : 127 MiB (6%)
Title : [UA-MVO]
Language : Ukrainian
Service kind : Complete Main
Default : Yes
Forced : Yes

Audio #2
ID : 3
Format : AC-3
Format/Info : Audio Coding 3
Codec ID : A_AC3
Duration : 1 h 32 min
Bit rate mode : Constant
Bit rate : 448 kb/s
Channel(s) : 6 channels
Channel positions : Front: L C R, Side: L R, LFE
Sampling rate : 48.0 kHz
Frame rate : 31.250 FPS (1536 SPF)
Bit depth : 16 bits
Compression mode : Lossy
Stream size : 296 MiB (14%)
Title : Original | DD 5.1 @ 448 kbps
Language : English
Service kind : Complete Main
Default : No
Forced : No

Text #1
ID : 4
Format : UTF-8
Codec ID : S_TEXT/UTF8
Codec ID/Info : UTF-8 Plain Text
Duration : 1 h 24 min
Bit rate : 53 b/s
Count of elements : 1079
Stream size : 32.8 KiB (0%)
Title : Full
Language : English
Default : No
Forced : No

Text #2
ID : 5
Format : UTF-8
Codec ID : S_TEXT/UTF8
Codec ID/Info : UTF-8 Plain Text
Duration : 1 h 25 min
Bit rate : 61 b/s
Count of elements : 1166
Stream size : 38.4 KiB (0%)
Title : SDH
Language : English
Default : No
Forced : No

Text #3
ID : 6
Format : UTF-8
Codec ID : S_TEXT/UTF8
Codec ID/Info : UTF-8 Plain Text
Duration : 1 h 25 min
Bit rate : 55 b/s
Count of elements : 1165
Stream size : 34.4 KiB (0%)
Title : SDH-Colored
Language : English
Default : No
Forced : No

Menu
00:00:00.000 : en:00:00:00.000
00:06:08.658 : en:00:06:08.658
00:14:12.350 : en:00:14:12.350
00:23:21.816 : en:00:23:21.816
00:27:53.296 : en:00:27:53.296
00:33:44.814 : en:00:33:44.814
00:39:56.893 : en:00:39:56.893
00:45:03.532 : en:00:45:03.532
00:49:49.193 : en:00:49:49.193
00:56:36.391 : en:00:56:36.391
01:00:54.317 : en:01:00:54.317
01:05:01.105 : en:01:05:01.105
01:10:29.557 : en:01:10:29.557
01:16:24.787 : en:01:16:24.787
01:21:46.275 : en:01:21:46.275
01:25:39.257 : en:01:25:39.257
Скріншоти





Подяка krigg070 за запис з ТБ та ninenine за синхронізацію

Джерело: &
Особиста оцінка: 0 - не дивився


 Трекер:    Зареєстрований   

Завантажити / скачати фільм українською



відео для новачків



 Зареєстрований:   2018-07-08 05:19
 Розмір:   2.01 GB 
 Оцінка фільму:   9/10 (Голосів: 21)
   
Інші релізи
   Шалена карта / Wild Card (2015) 1080p Ukr/Eng | Sub Eng staf777  2 / 0   8.96 GB   2018-07-08 04:57 
   Шалена карта / Wild Card (2015) Ukr/Eng ninenine  32 / 0   1.6 GB   2016-08-02 18:20 
klm_109 
Новенький


З нами з: 23.09.17
Востаннє: 17.11.18
Повідомлень: 10

2018-07-08 10:36  
обов`язково дивитись
0953673697 
Новенький


З нами з: 10.06.17
Востаннє: 16.11.18
Повідомлень: 7

2018-07-09 14:13  
Класний фільм,не лише кулаки...
masiff 
Свій


З нами з: 06.12.16
Востаннє: 16.11.18
Повідомлень: 68

2018-07-09 16:08  
Спасибі.
Ваш часовий пояс: GMT + 2 Години

Нова тема   Відповісти