Великий куш / Snatch. (2000) AVC 4xUkr/Eng | Sub Eng

Нові коментарі

Нова тема   Відповісти
Автор Повідомлення
staf777 
Попереджень: 1
Попереджень: 1 


З нами з: 16.11.16
Востаннє: 20.07.18
Повідомлень: 1262

2018-07-07 19:40  
Великий куш / Snatch. (2000) AVC 4xUkr/Eng | Sub Eng



Альтернативні та оригінальні постери













Жанр: комедія, кримінальний
Країна: Велика Британія, США

Top 250 #99

Кіностудія / кінокомпанія: Columbia Pictures Corporation, SKA Films
Режисер: Ґай Річі / Guy Ritchie
Композитор: Джон Мерфі / John Murphy
Актори: Бенісіо Дель Торо / Benicio Del Toro, Денніс Фаріна / Dennis Farina, Вінні Джонс / Vinnie Jones, Бред Піт / Brad Pitt, Рад Сербеджа / Rade Serbedzija, Джейсон Стетгем / Jason Statham, Алан Форд / Alan Ford, Ленні Джеймс / Lennie James, Евен Бреннер / Ewen Bremner, Джейсон Флемінґ / Jason Flemyng, Ґай Річі / Guy Ritchie та інші

Сюжет:
Виконуючи замовлення американського гангстера Ейві, декілька грабіжників на чолі з запеклим гравцем Френкі викрадають великий діамант. Один з членів банди виявляється зрадником, тому про цінну здобич дізнаються інші злочинні угрупування, які починають справжнє полювання на трикляту коштовність...
Цікаві факти


• Бред Піт - великий шанувальник фільму «Карти, гроші і два стволи» (1998). Зустрівшись з Ґаєм Річі, Бред попросив його про роль в наступній картині. Піт отримав роль Міккі-цигана після того, як з'ясувалося, що він не може достовірно зімітувати лондонський акцент.
• Ейд, який зіграв Тайрона, прийшов на знімальний майданчик фільму, шукаючи роботу в якості охоронця. Після того, як його побачив Ґай Річі, він одразу ж запропонував йому роль Тайрона.
• Для того, щоб підтримувати порядок на знімальному майданчику, Ґай Річі ввів своєрідну систему штрафів, серед яких були штрафи на мобільні телефони що дзвонять, запізнення, сон у робочий час, за розмови, за висловлення невдоволення...
• Коли Міккі говорить Турку про новий будиночку на колесах для його матері, він особливо підкреслює, що трейлер повинен бути ніжно-блакитного кольору. У «Психо» (1960) ми дізнаємося, що Норман Бейтс допомагав вибирати сукню такого ж кольору для своєї мертвої матері. Міккі, як і Норман, також, хоч і побічно, відповідальний за смерть своєї матері.
• В одній зі сцен Вінні Джонс б'є людину по голові дверцятами своєї машини. Те ж саме він робив у фільмі «Карти, гроші і два стволи» (1998), режисером якого був Ґай Річі.
• В одній зі сцен Борис-бритва дістає з-під піджака різницький ніж. Те ж саме робив Міло у фільмі «Карти, гроші і два стволи» (1998).
• Після виходу фільму «Карти, гроші і два стволи» (1998) багато критиків заявили, що через яскраво виражений лондонський акцент дуже складно розібрати, про що говорять персонажі. У «Великому куші» Ґай Річі навмисне зробив мову Міккі вкрай не розбірливою, тим самим, він покепкував над численними критиками: те, що говорить Міккі, не можуть зрозуміти ні інші герої фільму, ні глядачі, ні критики.
• З чуток, Ґай Річі заплатив $ 1 млн. за використання пісні Мадонни «Lucky Star».
• Практично всі ідіотські ситуації, в які потрапляють Сол, Вінсент і Тайрон, засновані на реальних подіях: Ґай Річі запозичив їх з документальних телепередач про найбезглуздіші злочини.
• Ґая Річі можна помітити в барі, коли Даґ-голова відмовляється купувати дорогоцінні камені: людина, що читає газету в кутку бару, - Ґай Річі.
• Тім Моріс-Джоунс (оператор) зіграв людину, яку Френкі - чотири пальці (Бенісіо Дель Торо) кілька разів б'є по голові в сцені пограбування. У фільмі «Карти, гроші і два стволи» (1998), де Тім також був оператором, він зіграв людину, яку в самому початку картини топить Баррі-баптист (Лені МакЛін).
• На початку фільму йдеться про діамант у 86 карат, однак, у кінцівці - про діамант у 84 карати.
• У попередньому фільмі Ґая Річі, «Карти, гроші і два стволи» (1998), є сцена розмови між Гаррі, Баррі і Крісом. Баррі каже: «Ні, Гаррі, ти не можеш», після чого, дану фразу повторює Кріс, а потім разом Кріс і Баррі. Подібний жарт є і в «Великому куші», коли Алекс і Сюзі спочатку окремо, а потім разом повторюють фразу «так, тато, ти сказав нам».
• У США назву фільму хотіли змінити на «Snatched» або «Snatch'd».
• За фільм слово «fuck» вимовляється 153 рази.
• Протягом початкових титрів грабіжники обговорюють Діву Марію (Virgin Mary). Даний епізод дуже схожий на початкову сцену зі «Скажених псів» (1992), де мова йшла про пісню Мадонни «Як незаймана» (Like a Virgin).
• За час телефонної розмови між Френкі - чотири пальці і кузеном Аві, Френкі переодягається в чотири різних костюма.
• Муллі говорить Тоні, що букмекера пограбували Вінні і Сол, у яких є ломбард на Сміт Стріт (Smith Street). Ця вулиця знаходиться в Челсі, розкішному районі Лондона.
• Через невеликий кошторис, продюсери не могли дозволити собі набрати необхідну масовку для сцени боксерського поєдинку. Кожен раз коли камера змінює кут, масовці доводилося переміщатися, для того щоб створити ефект величезного натовпу, присутньої на матчі.
• Назва фільму згадується лише одного разу, коли Вінні, простягаючи собаці пискливу іграшку, каже: «Не хапай!» (Don't Snatch!).
• Коли знімали сцену, в якій Вінні і Сол сидять у машині біля букмекерської контори Цеглини, і до них підходить Тоні - куля в зубах, Вінні Джонс був відсутній на знімальному майданчику, бо в цей самий час він сидів у поліцейській ділянці через бійку, влаштовану ним у ніч перед зйомками.
• Кошторис: £6,000,000

Рейтинг MPAA: R - особам до 17 років обов'язкова присутність батьків або дорослого опікуна
Вікова категорія: 16+

Тривалість: 01:42:46
Якість: AVC
Відео:
кодек:
розмір кадру: 1024x554
бітрейт: 1827 кбіт/с

Аудіо # 1:
мова: українська
переклад: двоголосий закадровий - Студія 1+1
кодек: 2.0
бітрейт: 192 кбіт/с
Інформація про озвучення

Переклад: Катерини Фуртас
Літературний редактор: Ганна Ведмідь
Звукорежисер: Олена Мойжес
Режисер: Володимир Коваленко
Ролі озвучили: Ігор Волков і Світлана Круть

Фільм перекладено і озвучено на студії 1+1
Аудіо # 2:
мова: українська
переклад: багатоголосий закадровий
ролі озвучили: Джейсон Стетгем — Олег Стальчук, Юрій Гребельник, Бенісіо Дель Торо — Володимир Терещук і один жіночий голос
кодек: 2.0
бітрейт: 192 кбіт/с

Аудіо # 3:
мова: українська
переклад: багатоголосий закадровий
кодек: 2.0
бітрейт: 192 кбіт/с

Аудіо # 4:
мова: українська
переклад: багатоголосий закадровий
кодек: 5.1
бітрейт: 384 кбіт/с

Аудіо # 5:
мова: англійська
переклад: оригінал
кодек: 5.1
бітрейт: 384 кбіт/с

Субтитри # 1-2: (форсовані, повні)
мова: англійська
тип: програмні (м'які)
формат: *.srt

Збережено оригінальні розділи, як на Blu-ray.
Info
Код:
General
Unique ID                   : 309568835164340795927972065102662569483 (0xE8E4C9F89346AC5BCE69044238BD8E0B)
Complete name               : H:\Snatch. (2000) AVC [4xUkrEng] [Sub Eng] [Hurtom].
Format                      :
Format version              : Version 4 / Version 2
File size                   : 2.28 GiB
Duration                    : 1 h 42 min
Overall bit rate            : 3 172 kb/s
Movie name                  : Snatch. (2000) AVC [4xUkr/Eng] [Sub Eng] [Hurtom]
Encoded date                : UTC 2018-07-07 16:52:14
Writing application         : v24.0.0 ('Beyond The Pale') 64-bit
Writing library             : libebml v1.3.6 + v1.4.9
Cover                       : Yes
Attachments                 : cover.jpg / xlog.txt / cover.jpg

Video
ID                          : 1
Format                      : AVC
Format/Info                 : Advanced Video Codec
Format profile              : [email protected]
Format settings             : CABAC / 9 Ref Frames
Format settings, CABAC      : Yes
Format settings, ReFrames   : 9 frames
Codec ID                    : V_MPEG4/ISO/AVC
Duration                    : 1 h 42 min
Bit rate                    : 1 827 kb/s
Width                       : 1 024 pixels
Height                      : 554 pixels
Display aspect ratio        : 1.85:1
Frame rate mode             : Constant
Frame rate                  : 23.976 (24000/1001) FPS
Color space                 : YUV
Chroma subsampling          : 4:2:0
Bit depth                   : 8 bits
Scan type                   : Progressive
Bits/(Pixel*Frame)          : 0.134
Stream size                 : 1.31 GiB (58%)
Title                       : Rip by 0ptimus
Writing library             : core 133 r2334 a3ac64b
Encoding settings           : cabac=1 / ref=9 / deblock=1:-3:-3 / analyse=0x3:0x113 / me=umh / subme=10 / psy=1 / psy_rd=1.00:0.20 / mixed_ref=1 / me_range=32 / chroma_me=1 / trellis=2 / 8x8dct=1 / cqm=0 / deadzone=21,11 / fast_pskip=0 / chroma_qp_offset=-3 / threads=4 / lookahead_threads=1 / sliced_threads=0 / nr=0 / decimate=0 / interlaced=0 / bluray_compat=0 / constrained_intra=0 / bframes=11 / b_pyramid=2 / b_adapt=2 / b_bias=0 / direct=3 / weightb=1 / open_gop=0 / weightp=2 / keyint=240 / keyint_min=23 / scenecut=40 / intra_refresh=0 / rc_lookahead=40 / rc=2pass / mbtree=0 / bitrate=1827 / ratetol=1.0 / qcomp=0.60 / qpmin=0 / qpmax=69 / qpstep=4 / cplxblur=20.0 / qblur=0.5 / vbv_maxrate=50000 / vbv_bufsize=50000 / nal_hrd=none / ip_ratio=1.40 / pb_ratio=1.30 / aq=1:1.00
Language                    : English
Default                     : Yes
Forced                      : Yes

Audio #1
ID                          : 2
Format                      : AC-3
Format/Info                 : Audio Coding 3
Codec ID                    : A_AC3
Duration                    : 1 h 42 min
Bit rate mode               : Constant
Bit rate                    : 192 kb/s
Channel(s)                  : 2 channels
Channel positions           : Front: L R
Sampling rate               : 48.0 kHz
Frame rate                  : 31.250 FPS (1536 SPF)
Bit depth                   : 16 bits
Compression mode            : Lossy
Stream size                 : 141 MiB (6%)
Title                       : DVO, 1+1
Language                    : Ukrainian
Service kind                : Complete Main
Default                     : Yes
Forced                      : Yes

Audio #2
ID                          : 3
Format                      : AC-3
Format/Info                 : Audio Coding 3
Codec ID                    : A_AC3
Duration                    : 1 h 42 min
Bit rate mode               : Constant
Bit rate                    : 192 kb/s
Channel(s)                  : 2 channels
Channel positions           : Front: L R
Sampling rate               : 48.0 kHz
Frame rate                  : 31.250 FPS (1536 SPF)
Bit depth                   : 16 bits
Compression mode            : Lossy
Stream size                 : 141 MiB (6%)
Title                       : MVO, Украина
Language                    : Ukrainian
Service kind                : Complete Main
Default                     : No
Forced                      : No

Audio #3
ID                          : 4
Format                      : AC-3
Format/Info                 : Audio Coding 3
Codec ID                    : A_AC3
Duration                    : 1 h 42 min
Bit rate mode               : Constant
Bit rate                    : 192 kb/s
Channel(s)                  : 2 channels
Channel positions           : Front: L R
Sampling rate               : 48.0 kHz
Frame rate                  : 31.250 FPS (1536 SPF)
Bit depth                   : 16 bits
Compression mode            : Lossy
Stream size                 : 141 MiB (6%)
Title                       : MVO, ICTV
Language                    : Ukrainian
Service kind                : Complete Main
Default                     : No
Forced                      : No

Audio #4
ID                          : 5
Format                      : AC-3
Format/Info                 : Audio Coding 3
Codec ID                    : A_AC3
Duration                    : 1 h 42 min
Bit rate mode               : Constant
Bit rate                    : 384 kb/s
Channel(s)                  : 6 channels
Channel positions           : Front: L C R, Side: L R, LFE
Sampling rate               : 48.0 kHz
Frame rate                  : 31.250 FPS (1536 SPF)
Bit depth                   : 16 bits
Compression mode            : Lossy
Stream size                 : 282 MiB (12%)
Title                       : [UA-MVO-K-1]
Language                    : Ukrainian
Service kind                : Complete Main
Default                     : No
Forced                      : No

Audio #5
ID                          : 6
Format                      : AC-3
Format/Info                 : Audio Coding 3
Codec ID                    : A_AC3
Duration                    : 1 h 42 min
Bit rate mode               : Constant
Bit rate                    : 384 kb/s
Channel(s)                  : 6 channels
Channel positions           : Front: L C R, Side: L R, LFE
Sampling rate               : 48.0 kHz
Frame rate                  : 31.250 FPS (1536 SPF)
Bit depth                   : 16 bits
Compression mode            : Lossy
Stream size                 : 282 MiB (12%)
Title                       : 5.1 @ 384 kbps
Language                    : English
Service kind                : Complete Main
Default                     : No
Forced                      : No

Text #1
ID                          : 7
Format                      : UTF-8
Codec ID                    : S_TEXT/UTF8
Codec ID/Info               : UTF-8 Plain Text
Duration                    : 25 s 734 ms
Bit rate                    : 17 b/s
Count of elements           : 2
Stream size                 : 57.0 Bytes (0%)
Title                       : Forced
Language                    : English
Default                     : No
Forced                      : No

Text #2
ID                          : 8
Format                      : UTF-8
Codec ID                    : S_TEXT/UTF8
Codec ID/Info               : UTF-8 Plain Text
Duration                    : 1 h 38 min
Bit rate                    : 66 b/s
Count of elements           : 1346
Stream size                 : 48.4 KiB (0%)
Language                    : English
Default                     : No
Forced                      : No

Menu
00:00:00.000                : en:Start; Diamond Snatch
00:06:58.293                : en:Turkish & Tommy; Brick Top
00:11:53.546                : en:Boris & His Brother; Avi; Doug the Head
00:16:31.741                : en:Burying a Caravan; Gypsy Bare-Knuckle Champ
00:22:47.908                : en:Sol; Tyrone & His Getaway Car
00:30:03.218                : en:Replacement Fighter; A Dive in the Fourth
00:36:27.936                : en:All Bets Are Off; One-Punch Mickey
00:41:39.414                : en:A Problem
00:48:16.393                : en:Mickey's Offer
00:53:13.607                : en:Not a Bad Moment?
00:59:06.293                : en:Bullet-Tooth Tony; Brick Top's Persuasion
01:07:47.105                : en:A Hard Man to Track Down; All Roads Lead to Boris
01:13:24.525                : en:Desert Eagle vs. Replica; Russian Standoff
01:19:09.536                : en:Predictability of Stupidity; “Look in the Dog.”
01:28:12.579                : en:“Do Not Knock Him Out.”
01:33:58.341                : en:Action & Reaction
Скріншоти









Джерела та подяки:
ріп відео, оригінальні звук та субтитри - SbR (HDbits), Skazhutin (HDClub); українські доріжки - karvai0 - зведення, servus12 (1+1), xslim (Україна, ICTV) - запис з ТБ; українізовані постери - Gelios, Воїн; фільмографії акторів та інформація про озвучення - Віктор (всі - Гуртом).


ЗАЛИШАЙТЕСЬ ЯКОМОГА ДОВШЕ НА РОЗДАЧІ!

СКАЧАВ САМ - ДАЙ СКАЧАТИ ІНШИМ


Срібний реліз (на рейтинг впливає 50% завантаженого)
 Трекер:    Зареєстрований   

Завантажити / скачати фільм українською



відео для новачків



 Зареєстрований:   2018-07-07 20:49
 Розмір:   2.28 GB 
 Оцінка фільму:   9.4/10 (Голосів: 16)
   
Інші релізи
   Великий куш / Snatch. (2000) Remux 1080p 3xUkr/Eng | Sub Eng IronBee  2 / 0   24.96 GB   2017-08-13 12:55 
   Великий куш / Snatch. (2000) 1080p 3xUkr/Eng | Sub Eng staf777  3 / 0   14.8 GB   2017-02-18 11:26 
   Великий куш / Snatch. (2000) 720p 3xUkr/Eng | Sub Eng igor911  15 / 0   6.78 GB   2015-03-19 12:11 
   Великий куш / Snatch. (2000) 3xUkr/Eng | Sub Eng karvai0  19 / 0   2.18 GB   2014-11-19 23:39 
bot 
робот


З нами з: 30.09.07
Востаннє: 26.05.05
Повідомлень: 19338

2018-07-07 20:48  
Тему перенесено з Анонси релізів до форуму Фільми


staf777

Ваш часовий пояс: GMT + 2 Години

Нова тема   Відповісти