Формула 1. Сезон 2018. Етап 10. Гран-Прі Великобританії. Кваліфікація (07.07.2018) 1080p

Нові коментарі

Нова тема   Відповісти
Автор Повідомлення
sergiyko.5 
VIP


З нами з: 25.02.16
Востаннє: 27.10.20
Повідомлень: 3638

2018-07-07 17:22  
Формула 1. Сезон 2018. Етап 10. Гран-Прі Великобританії. Кваліфікація (07.07.2018) 1080p


Формула 1. Сезон 2018. Етап 10. Гран-Прі Великобританії. Кваліфікація (07.07.2018) 1080p

Жанр: Перегони Формули 1
Країна: Великобританія
Телеканал: Перший автомобільний
Коментатор: Максим Подзігун

Опис:
Кваліфікація десятого етапу Гран-Прі Великобританії 2018 року.


Тривалість: 01:17:35
Якість:

Відео: кодек: розмір кадру: 1920 х 1080 бітрейт: 8000 кб/с
Аудіо: мова: українська кодек: 2.0 бітрейт: 192 кб/с
Про файл:

General
Unique ID : 46089143532091658080558877287190349213 (0x22AC7237CD27FDC2EC48BEE72183C59D)
Complete name : D:\Torrents\SPORT\Formula 1\F1.2018.Qualifying\F1.2018.10.Britain.Qualifying.1080p.IPTV.Ukr.
Format :
Format version : Version 4 / Version 2
File size : 4.41 GiB
Duration : 1 h 17 min
Overall bit rate : 8 141 kb/s
Encoded date : UTC 2018-07-07 15:18:13
Writing application : v24.0.0 ('Beyond The Pale') 64-bit
Writing library : libebml v1.3.6 + v1.4.9

Video
ID : 1
Format : AVC
Format/Info : Advanced Video Codec
Format profile : [email protected]
Format settings : CABAC / 4 Ref Frames
Format settings, CABAC : Yes
Format settings, ReFrames : 4 frames
Codec ID : V_MPEG4/ISO/AVC
Duration : 1 h 17 min
Bit rate : 7 946 kb/s
Width : 1 920 pixels
Height : 1 080 pixels
Display aspect ratio : 16:9
Frame rate mode : Constant
Frame rate : 25.000 FPS
Color space : YUV
Chroma subsampling : 4:2:0
Bit depth : 8 bits
Scan type : Progressive
Bits/(Pixel*Frame) : 0.153
Stream size : 4.31 GiB (98%)
Language : English
Default : Yes
Forced : No

Audio
ID : 2
Format :
Format/Info : Advanced Audio Codec
Format profile : LC
Codec ID : A_AAC-2
Duration : 1 h 17 min
Bit rate : 192 kb/s
Channel(s) : 2 channels
Channel positions : Front: L R
Sampling rate : 48.0 kHz
Frame rate : 46.875 FPS (1024 SPF)
Compression mode : Lossy
Stream size : 107 MiB (2%)
Title : 1 Авто | Максим Подзігун
Language : Ukrainian
Default : Yes
Forced : No
Скріншоти:


Автор запису: Callistus


 Трекер:    Зареєстрований   

Завантажити / скачати торрент



відео для новачків



 Зареєстрований:   2018-07-07 17:22
 Розмір:   4.41 GB 
 Оцінка:   9.1/10 (Голосів: 10)
   
VicCob 
Свій


З нами з: 16.06.10
Востаннє: 25.10.20
Повідомлень: 58

2018-07-07 18:01  
Дякую! особливо за оперативність
yakuzzza2012 
Новенький


З нами з: 19.01.13
Востаннє: 06.01.19
Повідомлень: 1

2018-07-07 18:39  
Посидируйте, пожалуйста.
legioneRRR 
Частий відвідувач


З нами з: 02.01.15
Востаннє: 27.10.20
Повідомлень: 33

2018-07-07 18:58  
Дякую! Забрав на перегляд.
Ваш часовий пояс: GMT + 2 Години

Нова тема   Відповісти