Великий Лебовські / The Big Lebowski (1998) AVC 2xUkr/Eng | Sub Eng

Нові коментарі

Нова тема   Відповісти
Автор Повідомлення
staf777 
Попереджень: 1
Попереджень: 1 


З нами з: 16.11.16
Востаннє: 23.09.18
Повідомлень: 1518

2018-07-07 16:09  
Великий Лебовські / The Big Lebowski (1998) AVC 2xUkr/Eng | Sub Eng

Великий Лебовські / The Big Lebowski (1998) AVC 2xUkr/Eng | Sub Eng


Жанр: комедія, кримінальний
Країна: США, Велика Британія



Кінокомпанія: Polygram Filmed Entertainment, Working Title Films
Режисер: Джоель Коен / Joel Coen
Актори: Джефф Бріджес / Jeff Bridges, Джон Ґудмен / John Goodman, Джуліанн Мур / Julianne Moore, Стів Бушемі / Steve Buscemi, Девід Гадлстон / David Huddleston, Філіп Сеймур Гофмен / Philip Seymour Hoffman, Тара Рейд / Tara Reid, Бен Ґазара / Ben Gazzara, Сем Елліотт / Sam Elliott, Петер Стормаре / Peter Stormare

Сюжет:
Колишній хіпі Джефф Лебовські не кличе себе Лебовські. Він називає себе Чувак. Але негідники, які увірвалися до нього додому, вмочують Чувака головою в унітаз, випорожнюються на килим, вимагають якісь гроші і називають його Лебовські. З'ясовується, що Чувака Лебовські переплутали з іншим Лебовські, мільйонером, у якого викрали дружину і тепер вимагають викуп.
Чувак вирушає до мільйонера, щоб розібратися щодо компенсації за сплюндрований килим. Замість цього мільйонер пропонує зайнятися передачею викупу негідникам, які викрали його дружину. До справи підключається старий приятель Лебовські - Волтер Собчак, ветеран В'єтнаму і ревний іудей. З кожною хвилиною події набувають все більш абсурдного повороту.
Діалоги вражають бадьорістю - слово fuck у фільмі вжито 281 раз. Багато реплік персонажів стали крилатими фразами.


Тривалість: 01:56:56
Якість: AVC
Відео:
кодек:
розмір кадру: 1152x624
бітрейт: 4120 кб/с

Аудіо # 1:
мова: українська
переклад: багатоголосий закадровий
кодек: 2.0
бітрейт: 192 кб/с

Аудіо # 2:
мова: українська
переклад: багатоголосий закадровий
кодек: 2.0
бітрейт: 192 кб/с

Аудіо # 3:
мова: англійська
переклад: оригінал
кодек: 5.1
бітрейт: 384 кб/с

Субтитри:
мова: англійська
тип: програмні (м'які)
формат: *.srt
Info
General
Unique ID : 172759200385459234332614144752688728836 (0x81F8363338A76C9C2E139B51379E8B04)
Complete name : H:\The Big Lebowski (1998) AVC [2xUkr & Eng] [Hurtom].
Format :
Format version : Version 4 / Version 2
File size : 3.99 GiB
Duration : 1 h 56 min
Overall bit rate : 4 890 kb/s
Movie name : The Big Lebowski (1998) AVC [2xUkr & Eng] [Hurtom]
Encoded date : UTC 2018-07-07 12:51:26
Writing application : v24.0.0 ('Beyond The Pale') 64-bit
Writing library : libebml v1.3.6 + v1.4.9
Cover : Yes
Attachments : cover.jpg

Video
ID : 1
Format : AVC
Format/Info : Advanced Video Codec
Format profile : [email protected]
Format settings : CABAC / 10 Ref Frames
Format settings, CABAC : Yes
Format settings, ReFrames : 10 frames
Codec ID : V_MPEG4/ISO/AVC
Duration : 1 h 56 min
Bit rate : 4 120 kb/s
Width : 1 152 pixels
Height : 624 pixels
Display aspect ratio : 1.85:1
Frame rate mode : Constant
Frame rate : 23.976 FPS
Color space : YUV
Chroma subsampling : 4:2:0
Bit depth : 8 bits
Scan type : Progressive
Bits/(Pixel*Frame) : 0.239
Stream size : 3.36 GiB (84%)
Title : The Big Lebowski.1998..AVC (ITA) [1152x624]
Writing library : core 104 r1683 62997d6
Encoding settings : cabac=1 / ref=10 / deblock=1:-2:-1 / analyse=0x3:0x113 / me=umh / subme=9 / psy=1 / psy_rd=0.80:0.00 / mixed_ref=1 / me_range=32 / chroma_me=1 / trellis=1 / 8x8dct=1 / cqm=0 / deadzone=21,11 / fast_pskip=1 / chroma_qp_offset=-2 / threads=3 / sliced_threads=0 / nr=0 / decimate=1 / interlaced=0 / constrained_intra=0 / bframes=8 / b_pyramid=2 / b_adapt=1 / b_bias=0 / direct=1 / weightb=1 / open_gop=0 / weightp=2 / keyint=250 / keyint_min=23 / scenecut=40 / intra_refresh=0 / rc_lookahead=40 / rc=crf / mbtree=1 / crf=19.2 / qcomp=0.70 / qpmin=10 / qpmax=51 / qpstep=4 / ip_ratio=1.40 / aq=2:1.00
Language : English
Default : Yes
Forced : No
Color range : Limited
Matrix coefficients : BT.709

Audio #1
ID : 2
Format : AC-3
Format/Info : Audio Coding 3
Codec ID : A_AC3
Duration : 1 h 56 min
Bit rate mode : Constant
Bit rate : 192 kb/s
Channel(s) : 2 channels
Channel positions : Front: L R
Sampling rate : 48.0 kHz
Frame rate : 31.250 FPS (1536 SPF)
Bit depth : 16 bits
Compression mode : Lossy
Stream size : 160 MiB (4%)
Title : [UA-MVO]
Language : Ukrainian
Service kind : Complete Main
Default : Yes
Forced : Yes

Audio #2
ID : 3
Format : AC-3
Format/Info : Audio Coding 3
Codec ID : A_AC3
Duration : 1 h 56 min
Bit rate mode : Constant
Bit rate : 192 kb/s
Channel(s) : 2 channels
Channel positions : Front: L R
Sampling rate : 48.0 kHz
Frame rate : 31.250 FPS (1536 SPF)
Bit depth : 16 bits
Compression mode : Lossy
Stream size : 160 MiB (4%)
Title : [UA-MVO]
Language : Ukrainian
Service kind : Complete Main
Default : No
Forced : No

Audio #3
ID : 4
Format : AC-3
Format/Info : Audio Coding 3
Codec ID : A_AC3
Duration : 1 h 56 min
Bit rate mode : Constant
Bit rate : 384 kb/s
Channel(s) : 6 channels
Channel positions : Front: L C R, Side: L R, LFE
Sampling rate : 48.0 kHz
Frame rate : 31.250 FPS (1536 SPF)
Bit depth : 16 bits
Compression mode : Lossy
Stream size : 321 MiB (8%)
Language : English
Service kind : Complete Main
Default : No
Forced : No

Text
ID : 5
Format : UTF-8
Codec ID : S_TEXT/UTF8
Codec ID/Info : UTF-8 Plain Text
Duration : 1 h 51 min
Bit rate : 83 b/s
Count of elements : 1619
Stream size : 68.4 KiB (0%)
Language : English
Default : No
Forced : No
Скріншоти




Висловлюю подяку п. MAKAPOHHIK, Merdiff за наданий сирий звук до Аудіо #1 і п. PUPs за наданий сирий звук до Аудіо #2. Та пану karvai0 за синхронізацію обох доріжок
Джерело: &
Особиста оцінка: 0 - не дивився


Срібний реліз (на рейтинг впливає 50% завантаженого)
 Трекер:    Зареєстрований   

Завантажити / скачати фільм українською



відео для новачків



 Зареєстрований:   2018-07-07 17:36
 Розмір:   3.99 GB 
 Оцінка фільму:   8.8/10 (Голосів: 17)
   
Ваш часовий пояс: GMT + 2 Години

Нова тема   Відповісти