Великий Лебовські / The Big Lebowski (1998) Remux 1080p 2xUkr/Eng | Sub Eng

Нові коментарі

Нова тема   Відповісти
Автор Повідомлення
staf777 
Відео Гуртом - підтримка та поширення
Відео Гуртом - підтримка та поширення


З нами з: 16.11.16
Востаннє: 27.01.20
Повідомлень: 3373

2018-07-07 14:15  
Великий Лебовські / The Big Lebowski (1998) Remux 1080p 2xUkr/Eng | Sub Eng

Великий Лебовські / The Big Lebowski (1998) Remux 1080p 2xUkr/Eng | Sub Eng


Жанр: комедія, кримінальний
Країна: США, Велика Британія



Кінокомпанія: Polygram Filmed Entertainment, Working Title Films
Режисер: Джоель Коен / Joel Coen
Актори: Джефф Бріджес / Jeff Bridges, Джон Ґудмен / John Goodman, Джуліанн Мур / Julianne Moore, Стів Бушемі / Steve Buscemi, Девід Гадлстон / David Huddleston, Філіп Сеймур Гофмен / Philip Seymour Hoffman, Тара Рейд / Tara Reid, Бен Ґазара / Ben Gazzara, Сем Елліотт / Sam Elliott, Петер Стормаре / Peter Stormare

Сюжет:
Колишній хіпі Джефф Лебовські не кличе себе Лебовські. Він називає себе Чувак. Але негідники, які увірвалися до нього додому, вмочують Чувака головою в унітаз, випорожнюються на килим, вимагають якісь гроші і називають його Лебовські. З'ясовується, що Чувака Лебовські переплутали з іншим Лебовські, мільйонером, у якого викрали дружину і тепер вимагають викуп.
Чувак вирушає до мільйонера, щоб розібратися щодо компенсації за сплюндрований килим. Замість цього мільйонер пропонує зайнятися передачею викупу негідникам, які викрали його дружину. До справи підключається старий приятель Лебовські - Волтер Собчак, ветеран В'єтнаму і ревний іудей. З кожною хвилиною події набувають все більш абсурдного повороту.
Діалоги вражають бадьорістю - слово fuck у фільмі вжито 281 раз. Багато реплік персонажів стали крилатими фразами.


Тривалість: 01:56:56
Якість: Remux 1080p
Відео:
кодек:
розмір кадру: 1920x1080
бітрейт: 22 Mб/с

Аудіо # 1:
мова: українська
переклад: багатоголосий закадровий
кодек: 2.0
бітрейт: 192 кб/с

Аудіо # 2:
мова: українська
переклад: багатоголосий закадровий
кодек: 2.0
бітрейт: 192 кб/с

Аудіо # 3:
мова: англійська
переклад: оригінал
кодек: -HD MA 5.1
бітрейт: 1727 кб/с

Субтитри:
мова: англійська
тип: програмні (м'які)
формат: *.srt
Info
General
Unique ID : 209178168159200565465474745991589753438 (0x9D5E3FF16277C0CE01D90F360F03725E)
Complete name : D:\Фільми в HD\Комедія\The Big Lebowski (1998) Remux 1080p [2xUkr & Eng] [Hurtom].
Format :
Format version : Version 4 / Version 2
File size : 19.7 GiB
Duration : 1 h 56 min
Overall bit rate : 24.1 Mb/s
Movie name : The Big Lebowski (1998) Remux 1080p [2xUkr & Eng] [Hurtom]
Encoded date : UTC 2018-07-10 16:46:16
Writing application : v24.0.0 ('Beyond The Pale') 64-bit
Writing library : libebml v1.3.6 + v1.4.9
Cover : Yes
Attachments : cover.jpg

Video
ID : 1
Format : VC-1
Format profile : [email protected]
Codec ID : V_MS/VFW/FOURCC / WVC1
Codec ID/Hint : Microsoft
Duration : 1 h 56 min
Bit rate : 22.0 Mb/s
Width : 1 920 pixels
Height : 1 080 pixels
Display aspect ratio : 16:9
Frame rate mode : Constant
Frame rate : 23.976 (24000/1001) FPS
Color space : YUV
Chroma subsampling : 4:2:0
Bit depth : 8 bits
Scan type : Progressive
Compression mode : Lossy
Bits/(Pixel*Frame) : 0.442
Stream size : 18.0 GiB (91%)
Default : Yes
Forced : No

Audio #1
ID : 2
Format : AC-3
Format/Info : Audio Coding 3
Codec ID : A_AC3
Duration : 1 h 56 min
Bit rate mode : Constant
Bit rate : 192 kb/s
Channel(s) : 2 channels
Channel positions : Front: L R
Sampling rate : 48.0 kHz
Frame rate : 31.250 FPS (1536 SPF)
Bit depth : 16 bits
Compression mode : Lossy
Stream size : 160 MiB (1%)
Title : [UA-MVO]
Language : Ukrainian
Service kind : Complete Main
Default : Yes
Forced : Yes

Audio #2
ID : 3
Format : AC-3
Format/Info : Audio Coding 3
Codec ID : A_AC3
Duration : 1 h 56 min
Bit rate mode : Constant
Bit rate : 192 kb/s
Channel(s) : 2 channels
Channel positions : Front: L R
Sampling rate : 48.0 kHz
Frame rate : 31.250 FPS (1536 SPF)
Bit depth : 16 bits
Compression mode : Lossy
Stream size : 160 MiB (1%)
Title : [UA-MVO]
Language : Ukrainian
Service kind : Complete Main
Default : No
Forced : No

Audio #3
ID : 4
Format :
Format/Info : Digital Theater Systems
Format profile : MA / Core
Codec ID : A_DTS
Duration : 1 h 56 min
Bit rate mode : Variable / Constant
Bit rate : 1 727 kb/s / 1 509 kb/s
Channel(s) : 6 channels
Channel positions : Front: L C R, Side: L R, LFE
Sampling rate : 48.0 kHz
Frame rate : 93.750 FPS (512 SPF)
Bit depth : 16 bits
Compression mode : Lossless / Lossy
Delay relative to video : 626 ms
Stream size : 1.41 GiB (7%)
Language : English
Default : No
Forced : No

Text
ID : 5
Format : UTF-8
Codec ID : S_TEXT/UTF8
Codec ID/Info : UTF-8 Plain Text
Duration : 1 h 51 min
Bit rate : 83 b/s
Count of elements : 1619
Stream size : 68.4 KiB (0%)
Language : English
Default : No
Forced : No
Скріншоти



Висловлюю подяку п. MAKAPOHHIK, Merdiff за наданий сирий звук до Аудіо #1 і п. PUPs за наданий сирий звук до Аудіо #2. Та пану karvai0 за синхронізацію обох доріжок
Джерело: &
Особиста оцінка: 0 - не дивився


Золотий реліз (завантажене не впливає на рейтинг)
 Трекер:    Зареєстрований   

Завантажити / скачати фільм українською



відео для новачків



 Зареєстрований:   2018-07-11 12:59
 Розмір:   19.68 GB 
 Оцінка фільму:   9/10 (Голосів: 23)
   
igor911 
Модератор відео


З нами з: 18.01.08
Востаннє: 27.01.20
Повідомлень: 13987

2018-07-07 18:19  
Info написано:
ReFrames : 16 frames
такий ріп не відтворюватиметься на багатьох "залізних" програвачах та телеках, для повнокадрового 1080р ReFrames має бути не більше 4.

Додано через 46 секунд:

бажано замінити ріп на якісніший і сумісний.

Додано через 4 хвилини 23 секунди:

+ оригінальну доріжку в 1080р бажано додавати не зі злиденними 384 кб/с, а хоча б зі 448-640 кб/с

staf777 
Відео Гуртом - підтримка та поширення
Відео Гуртом - підтримка та поширення


З нами з: 16.11.16
Востаннє: 27.01.20
Повідомлень: 3373

2018-07-09 22:32  
Не знайшов гідного ріпа з тривалістю 01:56:56 гадаю ви не будете проти якщо пізніше я оновлю цей реліз тільки на ремукс
igor911 
Модератор відео


З нами з: 18.01.08
Востаннє: 27.01.20
Повідомлень: 13987

2018-07-11 14:17  
Кривий ріп замінено на ремукс.
Ваш часовий пояс: GMT + 2 Години

Нова тема   Відповісти