Кімната смерті / The Killing Room (2009) 1080p Ukr/Eng | Sub Eng

Нові коментарі

Нова тема   Відповісти
Автор Повідомлення
Anonymous 







2018-07-07 11:56  
Кімната смерті / The Killing Room (2009) 1080p Ukr/Eng | Sub Eng

Кімната смерті / The Killing Room (2009) 1080p Ukr/Eng | Sub Eng


Жанр: трилер, містика
Країна: США



Кінокомпанія: Winchester Capital Partners, Management 360, Eleven Eleven Films
Режисер: Джонатан Лібсман / Jonathan Liebesman
Актори: Нік Кенон, Клея Дюваль, Тімоті Хаттон, Пітер Стормаре

Сюжет:
Кілька незнайомих людей, що погодилися взяти участь в новій урядовій програмі розуміють, що беруть участь в жорстокій грі на виживання.


Тривалість: 01:33:17
Якість: 1080p
Відео:
кодек:
розмір кадру: 1920х816
бітрейт: 8 557 кб/с

Аудіо # 1:
мова: українська
переклад: багатоголосий закадровий |
кодек: 2.0
бітрейт: 192 кб/с

Аудіо # 2:
мова: англійська
переклад: оригінал
кодек: 5.1
бітрейт: 1509 кб/с

Субтитри:
мова: англійська
тип: програмні (м'які)
формат: *.srt
Info
General
Unique ID : 199997757368667504200129476248857720766 (0x96762ABEB86630C3AE84D7A0A823B7BE)
Format :
Format version : Version 4 / Version 2
File size : 6.69 GiB
Duration : 1 h 33 min
Overall bit rate : 10.3 Mb/s
Encoded date : UTC 2018-07-07 08:49:27
Writing application : v6.1.0 ('Old Devil') built on Mar 4 2013 09:10:42
Writing library : libebml v1.3.0 + v1.4.0

Video
ID : 1
Format : AVC
Format/Info : Advanced Video Codec
Format profile : [email protected]
Format settings, CABAC : Yes
Format settings, ReFrames : 5 frames
Codec ID : V_MPEG4/ISO/AVC
Duration : 1 h 33 min
Bit rate : 8 557 kb/s
Width : 1 920 pixels
Height : 816 pixels
Display aspect ratio : 2.35:1
Frame rate mode : Constant
Frame rate : 23.976 (24000/1001) FPS
Color space : YUV
Chroma subsampling : 4:2:0
Bit depth : 8 bits
Scan type : Progressive
Bits/(Pixel*Frame) : 0.228
Stream size : 5.44 GiB (81%)
Writing library : core 75 r1251 e553a4c
Encoding settings : cabac=1 / ref=5 / deblock=1:0:0 / analyse=0x3:0x113 / me=umh / subme=7 / psy=1 / psy_rd=1.0:0.0 / mixed_ref=1 / me_range=16 / chroma_me=1 / trellis=1 / 8x8dct=1 / cqm=0 / deadzone=21,11 / chroma_qp_offset=-2 / threads=6 / nr=0 / decimate=1 / mbaff=0 / bframes=3 / b_pyramid=0 / b_adapt=1 / b_bias=0 / direct=1 / wpredb=1 / keyint=250 / keyint_min=25 / scenecut=40 / rc_lookahead=40 / rc=2pass / mbtree=1 / bitrate=8557 / ratetol=1.0 / qcomp=0.60 / qpmin=10 / qpmax=51 / qpstep=4 / cplxblur=20.0 / qblur=0.5 / ip_ratio=1.40 / aq=1:1.00
Language : English
Default : Yes
Forced : No

Audio #1
ID : 2
Format : AC-3
Format/Info : Audio Coding 3
Format settings, Endianness : Big
Codec ID : A_AC3
Duration : 1 h 33 min
Bit rate mode : Constant
Bit rate : 192 kb/s
Channel(s) : 2 channels
Channel positions : Front: L R
Sampling rate : 48.0 kHz
Frame rate : 31.250 FPS (1536 spf)
Bit depth : 16 bits
Compression mode : Lossy
Stream size : 128 MiB (2%)
Title : UKR (NLO-TV)
Language : Ukrainian
Service kind : Complete Main
Default : Yes
Forced : Yes

Audio #2
ID : 3
Format :
Format/Info : Digital Theater Systems
Mode : 16
Format settings, Endianness : Big
Codec ID : A_DTS
Duration : 1 h 33 min
Bit rate mode : Constant
Bit rate : 1 509 kb/s
Channel(s) : 6 channels
Channel positions : Front: L C R, Side: L R, LFE
Sampling rate : 48.0 kHz
Frame rate : 93.750 FPS (512 spf)
Bit depth : 24 bits
Compression mode : Lossy
Stream size : 1 007 MiB (15%)
Title : ENG
Language : English
Default : No
Forced : No

Text
ID : 4
Format : UTF-8
Codec ID : S_TEXT/UTF8
Codec ID/Info : UTF-8 Plain Text
Title : ENG
Language : English
Default : Yes
Forced : No

Menu
00:00:00.000 : en:00:00:00.000
00:01:36.722 : en:00:01:36.722
00:07:20.231 : en:00:07:20.231
00:12:47.225 : en:00:12:47.225
00:19:24.038 : en:00:19:24.038
00:25:02.710 : en:00:25:02.710
00:31:41.775 : en:00:31:41.775
00:37:48.975 : en:00:37:48.975
00:43:04.999 : en:00:43:04.999
00:48:09.970 : en:00:48:09.970
00:53:42.719 : en:00:53:42.719
00:59:54.341 : en:00:59:54.341
01:04:49.302 : en:01:04:49.302
01:10:45.658 : en:01:10:45.658
01:18:45.804 : en:01:18:45.804
01:26:41.863 : en:01:26:41.863
Скріншоти





Подяка за укр.доріжку п. НТН
Особиста подяка пану denixx за надану матеріальну допомогу на підтримку цього і майбутніх релізів.
Джерело:


 Трекер:    Зареєстрований   

Завантажити / скачати фільм українською



відео для новачків



 Зареєстрований:   2018-07-07 11:56
 Розмір:   6.69 GB 
 Оцінка фільму:   10/10 (Голосів: 3)
   
Інші релізи
   Кімната смерті / The Killing Room (2009) Ukr/Eng НТН  1 / 0   1.46 GB   2013-12-17 11:49 
Ваш часовий пояс: GMT + 2 Години

Нова тема   Відповісти