Сліпота / Blindness (2008) AVC 2xUkr/Eng | Sub Eng

Нові коментарі

Нова тема   Відповісти
Автор Повідомлення
staf777 
Попереджень: 1
Попереджень: 1 


З нами з: 16.11.16
Востаннє: 18.12.18
Повідомлень: 1937

2018-07-07 08:14  
Сліпота / Blindness (2008) AVC 2xUkr/Eng | Sub Eng

Сліпота / Blindness (2008) AVC 2xUkr/Eng | Sub Eng

Жанр: драма, трилер, містика, фантастика
Країна: Канада, Бразилія, Японія



Кінокомпанія: Rhombus Media, O2 Filmes, Bee Vine Pictures
Режисер: Фернанду Мейрелліш / Fernando Meirelles
Актори: Джуліанна Мур / Julianne Moore, Марк Руффало / Mark Ruffalo, Гаель Гарсія Берналь / Gael García Bernal, Денні Гловер / Danny Glover, Юсуке Ісейа / Yûsuke Iseya, Джейсон Бермінгем / Jason Bermingham, Едуардо Семірян / Eduardo Semerjian, Дон МакКеллар / Don McKellar, Антоніо Фрагосо / Antônio Fragoso

Сюжет:
Місце дії фільму - величезний мегаполіс, у якого немає назви. Саме тут починається дивна епідемія... епідемія сліпоти. Жителі міста втрачають зір один за іншим і це ставить цілий мегаполіс на межу життя і смерті. Частину сліпих влада розміщує в карантин, де їм не надається ніякої допомоги. Інші організують кримінальні співтовариства. Велике місто занурюється в хаос. Лише одна жінка з невідомої причини залишилася бачити. Чи зможе вона стати провідником для інших?


Тривалість: 02:01:06
Якість: AVC
Відео:
кодек:
розмір кадру: 1024х576
бітрейт: 2117 кб/с

Аудіо # 1:
мова: українська
переклад: багатоголосий закадровий |
кодек: 2.0
бітрейт: 192 кб/с

Аудіо # 2:
мова: українська
переклад: багатоголосий закадровий |
кодек: 2.0
бітрейт: 192 кб/с

Аудіо # 3:
мова: англійська
переклад: оригінал
кодек: 5.1
бітрейт: 384 кб/с

Субтитри:
мова: англійська
тип: програмні (м'які)
формат: *.srt
Info
General
Unique ID : 299097666948158919111420037938332658986 (0xE1041D84C57F8DE651C8E5984D3D6D2A)
Complete name : H:\Blindness (2008) AVC [2xUkr,Eng][Hurtom].
Format :
Format version : Version 4 / Version 2
File size : 2.44 GiB
Duration : 2 h 1 min
Overall bit rate : 2 879 kb/s
Movie name : Blindness (2008) AVC [2xUkr,Eng][Hurtom]
Encoded date : UTC 2018-07-07 07:07:23
Writing application : v24.0.0 ('Beyond The Pale') 64-bit
Writing library : libebml v1.3.6 + v1.4.9
Cover : Yes
Attachments : cover.jpg

Video
ID : 1
Format : AVC
Format/Info : Advanced Video Codec
Format profile : [email protected]
Format settings : CABAC / 12 Ref Frames
Format settings, CABAC : Yes
Format settings, ReFrames : 12 frames
Codec ID : V_MPEG4/ISO/AVC
Duration : 2 h 1 min
Bit rate : 2 117 kb/s
Width : 1 024 pixels
Height : 576 pixels
Display aspect ratio : 16:9
Frame rate mode : Constant
Frame rate : 23.976 FPS
Color space : YUV
Chroma subsampling : 4:2:0
Bit depth : 8 bits
Scan type : Progressive
Bits/(Pixel*Frame) : 0.150
Stream size : 1.78 GiB (73%)
Title : Blindness (2008)
Writing library : core 94 r1583kMod 7608d73
Encoding settings : cabac=1 / ref=12 / deblock=1:-1:-1 / analyse=0x3:0x113 / me=umh / subme=10 / psy=1 / psy_rd=1.00:0.50 / mixed_ref=1 / me_range=32 / chroma_me=1 / trellis=2 / 8x8dct=1 / cqm=0 / deadzone=21,11 / fast_pskip=0 / chroma_qp_offset=-4 / threads=6 / sliced_threads=0 / nr=0 / decimate=1 / interlaced=0 / constrained_intra=0 / bframes=10 / b_pyramid=2 / b_adapt=2 / b_bias=0 / direct=3 / weightb=1 / weightp=2 / keyint=250 / keyint_min=25 / scenecut=40 / intra_refresh=0 / rc_lookahead=60 / rc=2pass / mbtree=1 / bitrate=2117 / ratetol=1.0 / qcomp=0.60 / qpmin=10 / qpmax=51 / qpstep=4 / cplxblur=20.0 / qblur=0.5 / ip_ratio=1.40 / aq=1:1.00
Language : Russian
Default : Yes
Forced : No

Audio #1
ID : 2
Format : AC-3
Format/Info : Audio Coding 3
Codec ID : A_AC3
Duration : 2 h 1 min
Bit rate mode : Constant
Bit rate : 192 kb/s
Channel(s) : 2 channels
Channel positions : Front: L R
Sampling rate : 48.0 kHz
Frame rate : 31.250 FPS (1536 SPF)
Bit depth : 16 bits
Compression mode : Lossy
Stream size : 166 MiB (7%)
Title : [UA-MVO-NTN]
Language : Ukrainian
Service kind : Complete Main
Default : Yes
Forced : Yes

Audio #2
ID : 3
Format : AC-3
Format/Info : Audio Coding 3
Codec ID : A_AC3
Duration : 2 h 1 min
Bit rate mode : Constant
Bit rate : 192 kb/s
Channel(s) : 2 channels
Channel positions : Front: L R
Sampling rate : 48.0 kHz
Frame rate : 31.250 FPS (1536 SPF)
Bit depth : 16 bits
Compression mode : Lossy
Stream size : 166 MiB (7%)
Title : [UA-MVO-2+2]
Language : Ukrainian
Service kind : Complete Main
Default : No
Forced : No

Audio #3
ID : 4
Format : AC-3
Format/Info : Audio Coding 3
Codec ID : A_AC3
Duration : 2 h 1 min
Bit rate mode : Constant
Bit rate : 384 kb/s
Channel(s) : 6 channels
Channel positions : Front: L C R, Side: L R, LFE
Sampling rate : 48.0 kHz
Frame rate : 31.250 FPS (1536 SPF)
Bit depth : 16 bits
Compression mode : Lossy
Stream size : 333 MiB (13%)
Language : English
Service kind : Complete Main
Default : No
Forced : No

Text
ID : 5
Format : UTF-8
Codec ID : S_TEXT/UTF8
Codec ID/Info : UTF-8 Plain Text
Duration : 1 h 51 min
Bit rate : 60 b/s
Count of elements : 1332
Stream size : 49.2 KiB (0%)
Language : English
Default : No
Forced : No
Скріншоти



Gelios українізований постер MAKAPOHHIK сирий звук з каналу НТН Sando7 сирий звук з каналу 2+2
Lan синхронізація доріжки №1 patriot2305 синхронізація доріжки №2
Особа подяка drop_plz за допомогу в створені реліза

Джерело: &


 Трекер:    Зареєстрований   

Завантажити / скачати фільм українською



відео для новачків



 Зареєстрований:   2018-07-07 09:30
 Розмір:   2.44 GB 
 Оцінка фільму:   7.9/10 (Голосів: 10)
   
Інші релізи
   Сліпота / Blindness (2008) 720p 2xUkr/Eng | Sub Eng staf777  1 / 0   8.25 GB   2018-07-06 20:45 
   Сліпота / Blindness (2008) 1080p 2xUkr/Eng | Sub Eng drop_plz  2 / 0   8.34 GB   2018-07-06 16:29 
   Сліпота / Blindness (2008) patriot2305  3 / 0   1.45 GB   2014-03-01 10:24 
   Сліпота / Blindness (2008) Ukr/Eng | Sub Eng Lan  4 / 0   2.18 GB   2011-12-03 13:22 
bot 
робот


З нами з: 30.09.07
Востаннє: 26.05.05
Повідомлень: 20372

2018-07-07 09:30  
Тему перенесено з Анонси релізів до форуму Фільми


staf777

olegderim 
VIP


З нами з: 08.02.11
Востаннє: 16.12.18
Повідомлень: 497

2018-07-08 00:20  
Щось на кшталт "Дня трифідів" без трифідів?
general_imet 
Новенький


З нами з: 31.10.15
Востаннє: 18.12.18
Повідомлень: 11

2018-07-26 11:03  
Переглянув фільм на одному подиху. Трошки затянутий початок з корейцем. Джіліанна Мур чудова акторка, відробила гонорар на 100%.
Щоправда, ідея фільму мені не зовсім зрозуміла, але от як люди починають вести себе в екстремальних ситуаціях показано вдало. Дещо нагадало фільм з Едріаном Броуді "Експеримент".

Раджу переглянути тим хто має 2 вільні години )

gt.a 
Свій


З нами з: 10.12.08
Востаннє: 18.12.18
Повідомлень: 80

2018-10-29 10:49  
Особливо вражає, коли мимоволі задумуєшся, як себе відчуває людина, будучи сліпою
Ваш часовий пояс: GMT + 2 Години

Нова тема   Відповісти