Першому гравцю приготуватися / Ready Player One (2018) 1080p H.265 Ukr/Eng | Sub Eng

Нові коментарі

Нова тема   Відповісти
Автор Повідомлення
ukr_anonymous 
Попереджень: 1
Попереджень: 1 


З нами з: 16.04.18
Востаннє: 14.12.18
Повідомлень: 231

2018-07-06 16:00  
Першому гравцю приготуватися / Ready Player One (2018) 1080p H.265 Ukr/Eng | Sub Eng

Першому гравцю приготуватися / Ready Player One (2018) 1080p H.265 Ukr/Eng | Sub Eng


Жанр: фантастика, бойовик, пригодницький, кіберпанк
Країна: США



Кінокомпанія: Warner Bros. Pictures, DreamWorks SKG, Amblin Entertainment, Village Roadshow Pictures, De Line Pictures
Режисер: Стівен Спілберг / Steven Spielberg
Актори: Тай Шерідан / Tye Sheridan, Олівія Кук / Olivia Cooke, Бен Мендельсон / Ben Mendelsohn, Саймон Пегг / Simon Pegg, Ті Джей Міллер / T.J. Miller, Ліна Вейт / Lena Waithe, Марк Райленс / Mark Rylance, Він Морісакі / Win Morisaki, Філіп Зао / Philip Zhao, Ханна Джон-Кеймен / Hannah John-Kamen та інші

Сюжет:
На дворі 2045 рік. Світ загруз на межі хаосу, адже велика частина населення просто виживає без достатніх коштів для існування. Щоб піти від непривабливої реальності, багато хто проводить час у грандіозному віртуальному ігровому всесвіті - ОАЗІ. Його створив ексцентричний і геніальний мільярдер Джеймс Голлідей. Після своєї смерті він заповів все своє майно (а це півтрильйона доларів і влада над грою) єдиному гравцеві – тому, хто першим добереться до ретельно захованої "пасхалки". Весь світ тепер готовий поборотися за ці неймовірні багатства. До змагання приєднується і звичайний хлопець-сирота Вейд Воттс (Тай Шерідан) і потрапляє у небезпечне полювання на скарб у фантастичному всесвіті таємниць, відкриттів та ризику...


Тривалість: 02:19:58
Якість:
Відео:
кодек: H.265 (HEVC)
розмір кадру: 1920 х 804
бітрейт: 5 000 кб/с
бітова глибина: 10 біт
Увага! Перед завантаженням переконайтесь, що ваш пристрій відтворення (та/або ПЗ) підтримують H.265 (HEVC)

Аудіо # 1:
мова: українська
переклад: професійний дубльований
кодек: 2.0
бітрейт: 192 кб/с

Аудіо # 2:
мова: англійська
переклад: оригінал
кодек: 5.1
бітрейт: 640 кб/с

Субтитри # 1:
мова: українська (Forced)
тип: програмні (м'які)
формат: *.srt

Субтитри # 2:
мова: англійська (SDH)
тип: програмні (м'які)
формат: *.srt
Info
General
Unique ID : 276736738641498996779871613723811696955 (0xD0318EA2713A438D636B78A572F2D13B)
Complete name : E:\Video\Ready Player One (2018) 1080p H.265 [UKR_ENG].
Format :
Format version : Version 4 / Version 2
File size : 5.70 GiB
Duration : 2 h 19 min
Overall bit rate : 5 834 kb/s
Movie name : Ready Player One (2018)
Encoded date : UTC 2018-07-06 13:35:44
Writing application : v22.0.0 ('At The End Of The World') 64-bit
Writing library : libebml v1.3.5 + v1.4.8
Cover : Yes
Attachments : cover.jpg

Video
ID : 1
Format : HEVC
Format/Info : High Efficiency Video Coding
Format profile : Main [email protected]@Main
Codec ID : V_MPEGH/ISO/HEVC
Duration : 2 h 19 min
Bit rate : 5 000 kb/s
Width : 1 920 pixels
Height : 804 pixels
Display aspect ratio : 2.40:1
Frame rate mode : Constant
Frame rate : 23.976 (24000/1001) FPS
Color space : YUV
Chroma subsampling : 4:2:0
Bit depth : 10 bits
Bits/(Pixel*Frame) : 0.135
Stream size : 4.89 GiB (86%)
Writing library : x265 2.8+19-bcdc610cf5f0:[Windows][GCC 7.3.0][64 bit] 10bit
Encoding settings : cpuid=1111039 / frame-threads=3 / numa-pools=8 / wpp / no-pmode / no-pme / no-psnr / no-ssim / log-level=2 / input-csp=1 / input-res=1920x804 / interlace=0 / total-frames=201357 / level-idc=0 / high-tier=1 / uhd-bd=0 / ref=4 / no-allow-non-conformance / no-repeat-headers / annexb / no-aud / no-hrd / info / hash=0 / no-temporal-layers / open-gop / min-keyint=23 / keyint=250 / gop-lookahead=0 / bframes=4 / b-adapt=2 / b-pyramid / bframe-bias=0 / rc-lookahead=25 / lookahead-slices=4 / scenecut=40 / radl=0 / no-intra-refresh / ctu=64 / min-cu-size=8 / rect / no-amp / max-tu-size=32 / tu-inter-depth=1 / tu-intra-depth=1 / limit-tu=0 / rdoq-level=2 / dynamic-rd=0.00 / no-ssim-rd / signhide / no-tskip / nr-intra=0 / nr-inter=0 / no-constrained-intra / strong-intra-smoothing / max-merge=3 / limit-refs=3 / limit-modes / me=3 / subme=3 / merange=57 / temporal-mvp / weightp / no-weightb / no-analyze-src-pics / deblock=0:0 / sao / no-sao-non-deblock / rd=4 / no-early-skip / rskip / no-fast-intra / no-tskip-fast / no-cu-lossless / no-b-intra / no-splitrd-skip / rdpenalty=0 / psy-rd=2.00 / psy-rdoq=1.00 / no-rd-refine / no-lossless / cbqpoffs=0 / crqpoffs=0 / rc=abr / bitrate=5000 / qcomp=0.60 / qpstep=4 / stats-write=0 / stats-read=2 / cplxblur=20.0 / qblur=0.5 / ipratio=1.40 / pbratio=1.30 / aq-mode=3 / aq-strength=1.00 / cutree / zone-count=0 / no-strict-cbr / qg-size=32 / no-rc-grain / qpmax=69 / qpmin=0 / no-const-vbv / sar=0 / overscan=0 / videoformat=5 / range=0 / colorprim=2 / transfer=2 / colormatrix=2 / chromaloc=0 / display-window=0 / max-cll=0,0 / min-luma=0 / max-luma=1023 / log2-max-poc-lsb=8 / vui-timing-info / vui-hrd-info / slices=1 / no-opt-qp-pps / no-opt-ref-list-length-pps / multi-pass-opt-rps / scenecut-bias=0.05 / no-opt-cu-delta-qp / aq-motion / no-hdr / no-hdr-opt / no-dhdr10-opt / no-idr-recovery-sei / analysis-reuse-level=5 / scale-factor=0 / refine-intra=0 / refine-inter=0 / refine-mv=0 / no-limit-sao / ctu-info=0 / no-lowpass-dct / refine-mv-type=0 / copy-pic=1 / max-ausize-factor=1.0 / no-dynamic-refine / no-single-sei
Default : Yes
Forced : No

Audio #1
ID : 2
Format : AC-3
Format/Info : Audio Coding 3
Codec ID : A_AC3
Duration : 2 h 19 min
Bit rate mode : Constant
Bit rate : 192 kb/s
Channel(s) : 2 channels
Channel positions : Front: L R
Sampling rate : 48.0 kHz
Frame rate : 31.250 FPS (1536 SPF)
Bit depth : 16 bits
Compression mode : Lossy
Stream size : 192 MiB (3%)
Title : Dub [Postmodern, iTunes] 2.0 [stereo] 192 kbps
Language : Ukrainian
Service kind : Complete Main
Default : Yes
Forced : Yes

Audio #2
ID : 3
Format : AC-3
Format/Info : Audio Coding 3
Codec ID : A_AC3
Duration : 2 h 19 min
Bit rate mode : Constant
Bit rate : 640 kb/s
Channel(s) : 6 channels
Channel positions : Front: L C R, Side: L R, LFE
Sampling rate : 48.0 kHz
Frame rate : 31.250 FPS (1536 SPF)
Bit depth : 16 bits
Compression mode : Lossy
Stream size : 641 MiB (11%)
Title : Original, 5.1 640 Kbps
Language : English
Service kind : Complete Main
Default : No
Forced : No

Text #1
ID : 4
Format : UTF-8
Codec ID : S_TEXT/UTF8
Codec ID/Info : UTF-8 Plain Text
Duration : 2 h 18 min
Bit rate : 2 b/s
Count of elements : 65
Stream size : 2.95 KiB (0%)
Title : Ukr FORCED
Language : Ukrainian
Default : Yes
Forced : Yes

Text #2
ID : 5
Format : UTF-8
Codec ID : S_TEXT/UTF8
Codec ID/Info : UTF-8 Plain Text
Duration : 2 h 8 min
Bit rate : 62 b/s
Count of elements : 1856
Stream size : 59.0 KiB (0%)
Title : Eng SDH
Language : English
Default : No
Forced : No

Menu
00:00:00.000 : en:00:00:00.000
00:10:08.233 : en:00:10:08.233
00:20:18.259 : en:00:20:18.259
00:30:37.627 : en:00:30:37.627
00:40:38.269 : en:00:40:38.269
00:50:08.964 : en:00:50:08.964
01:03:01.778 : en:01:03:01.778
01:11:55.269 : en:01:11:55.269
01:20:14.727 : en:01:20:14.727
01:30:58.328 : en:01:30:58.328
01:43:26.742 : en:01:43:26.742
01:53:02.150 : en:01:53:02.150
02:04:20.161 : en:02:04:20.161
02:09:17.249 : en:02:09:17.249
Скріншоти



Джерело:
Особиста оцінка: 0 - не дивився


ЗАЛИШАЙТЕСЬ ЯКОМОГА ДОВШЕ НА РОЗДАЧІ!
ЗАВАНТАЖИВ САМ - ДАЙ ЗАВАНТАЖИТИ ІНШИМ


 Трекер:    Зареєстрований   

Завантажити / скачати фільм українською



відео для новачків



 Зареєстрований:   2018-07-06 16:00
 Розмір:   5.7 GB 
 Оцінка фільму:   9.3/10 (Голосів: 35)
   
Wowatorrent 
Поважний учасник


З нами з: 23.03.16
Востаннє: 16.12.18
Повідомлень: 151

2018-07-06 16:51  
Вкажіть в назві H.265.
ukr_anonymous 
Попереджень: 1
Попереджень: 1 


З нами з: 16.04.18
Востаннє: 14.12.18
Повідомлень: 231

2018-07-06 16:56  
Wowatorrent
Дякую! Виправив

dimic 
Частий відвідувач


З нами з: 12.07.09
Востаннє: 15.12.18
Повідомлень: 33

2018-07-12 21:33  
дякую за реліз. не сприйміть за образу, але за скрінами дуже важко зрозуміти якість відео - не зрозуміло чи то кадр розмитий (в русі), чи недостатній бітрейт відео
Ваш часовий пояс: GMT + 2 Години

Нова тема   Відповісти