У пустелі смерті (Сезон 3) / Into the Badlands (Season 3) (2018) 720p 2xUkr/Eng

Нові коментарі

Нова тема   Відповісти
Автор Повідомлення
Anonymous 







2018-07-06 12:25  
У пустелі смерті (Сезон 3) / Into the Badlands (Season 3) (2018) 720p 2xUkr/Eng


ще постер
Жанр: екшн, пригодницький, драма
Країна: США



Кінокомпанія: AMC
Режисер: Девід Добкін
Актори: Деніел Ву, Орла Брейді, Сара Болгар, Араміс Найт, Емілі Бічем, Олівер Старк, Мадлен Манток, Елі Еонідес, Мартон Чокаш.

Сюжет:
Війни були так давно, що їх ніхто не пам'ятає. Темрява і страх панували тут, поки не з'явилися барони. Семеро чоловіків і жінок перетворили хаос на лад, люди стікалися до них у пошуках захисту, але захист обернувся рабством. Вони заборонили вогнепальну зброю і створили армії вбивць, яких назвали різниками. Цей світ заснований на крові, невинних тут немає. Ласкаво просимо в пустелю смерті.


Тривалість: 1 серія: 42хв (цілком серій: 16 з 16)
Перелік серій
1. Enter the Phoenix
2. Moon Rises, Raven Seeks
3. Leopard Snares Rabbit
4. Blind Cannibal Assassins
5. Carry Tiger to Mountain
6. Black Wind Howls
7. Dragonfly's Last Dance
8. Leopard Catches Cloud
9. Chamber of the Scorpion
10. Raven’s Feather, Phoenix Blood
11. The Boar and the Butterfly
12. Cobra Fang, Panther Claw
13. Black Lotus, White Rose
14. Curse of the Red Rain
15. Requiem for the Fallen
16. Seven Strike as One
Якість: [AMZN]
Відео:
кодек:
розмір кадру: 1280 х 720
бітрейт: 3100 - 4500 кб/с

Аудіо # 1:
мова: українська
переклад: багатоголосий закадровий |
кодек: 2.0
бітрейт: 192 кб/с

Аудіо # 2: 1-10 серії
мова: українська
переклад: двоголосий закадровий | ColdFilm
кодек: 2.0
бітрейт: 192 кб/с

Аудіо # 3:
мова: англійська
переклад: оригінал
кодек: E- 5.1
бітрейт: 640 кб/с
Info
Format :
Format version : Version 4
File size : 1.23 GiB
Duration : 42 min 34 s
Overall bit rate mode : Variable
Overall bit rate : 4 126 kb/s
Encoded date : UTC 2019-04-03 10:22:48
Writing application : v27.0.0 ('Metropolis') 64-bit
Writing library : libebml v1.3.6 + v1.4.9

Video
ID : 1
Format : AVC
Format/Info : Advanced Video Codec
Format profile : [email protected]
Format settings : CABAC / 5 Ref Frames
Format settings, CABAC : Yes
Format settings, ReFrames : 5 frames
Codec ID : V_MPEG4/ISO/AVC
Duration : 42 min 34 s
Bit rate mode : Variable
Bit rate : 3 100 kb/s
Maximum bit rate : 4 500 kb/s
Width : 1 280 pixels
Height : 720 pixels
Display aspect ratio : 16:9
Frame rate mode : Constant
Frame rate : 23.976 (24000/1001) FPS
Color space : YUV
Chroma subsampling : 4:2:0
Bit depth : 8 bits
Scan type : Progressive
Bits/(Pixel*Frame) : 0.140
Stream size : 944 MiB (75%)
Language : English
Default : Yes
Forced : No
Color range : Limited
Color primaries : BT.709
Transfer characteristics : BT.709
Matrix coefficients : BT.709

Audio #1
ID : 2
Format : AC-3
Format/Info : Audio Coding 3
Commercial name : Dolby Digital
Codec ID : A_AC3
Duration : 42 min 33 s
Bit rate mode : Constant
Bit rate : 192 kb/s
Channel(s) : 2 channels
Channel layout : L R
Sampling rate : 48.0 kHz
Frame rate : 31.250 FPS (1536 SPF)
Bit depth : 16 bits
Compression mode : Lossy
Stream size : 58.5 MiB (5%)
Title : AMC
Language : Ukrainian
Service kind : Complete Main
Default : Yes
Forced : Yes

Audio #2
ID : 3
Format : AC-3
Format/Info : Audio Coding 3
Commercial name : Dolby Digital
Codec ID : A_AC3
Duration : 42 min 33 s
Bit rate mode : Constant
Bit rate : 192 kb/s
Channel(s) : 2 channels
Channel layout : L R
Sampling rate : 48.0 kHz
Frame rate : 31.250 FPS (1536 SPF)
Bit depth : 16 bits
Compression mode : Lossy
Stream size : 58.5 MiB (5%)
Title : DVO - Coldfilm
Language : Ukrainian
Service kind : Complete Main
Default : No
Forced : No

Audio #3
ID : 4
Format : E-AC-3
Format/Info : Enhanced AC-3
Commercial name : Dolby Digital Plus
Codec ID : A_EAC3
Duration : 42 min 33 s
Bit rate mode : Constant
Bit rate : 640 kb/s
Channel(s) : 6 channels
Channel layout : L R C LFE Ls Rs
Sampling rate : 48.0 kHz
Frame rate : 31.250 FPS (1536 SPF)
Compression mode : Lossy
Stream size : 195 MiB (16%)
Language : English
Service kind : Complete Main
Default : No
Forced : No
Скріншоти






Подяка: пану з цієї роздачі за синхронізацію та доріжки. За постерт дякуємо mishka1998
Джерело:
Особиста оцінка: 8 - мені сподобалося



Золотий реліз (завантажене не впливає на рейтинг)
 Трекер:    Зареєстрований   

Завантажити / скачати серіал українською



відео для новачків



 Зареєстрований:   2019-05-14 19:00
 Розмір:   25.03 GB 
 Оцінка серіалу:   8.8/10 (Голосів: 12)
   
Anonymous 







2019-04-24 10:27  
..
igor911 
Модератор відео


З нами з: 18.01.08
Востаннє: 26.11.20
Повідомлень: 15080

2019-05-02 07:44  
Цитата:
Зареєстрований: 2019-05-01 23:27

що змінилось в релізі?
Anonymous написано:
Серії 1-13...
цілком серій: 12 з 1x

треба актуалізувати к-ть серій в описі та заголовках

Anonymous 







2019-05-02 09:43  
igor911 написано:
треба актуалізувати к-ть серій в описі та заголовках


зробив.

Додано через 1 хвилину 55 секунд:

igor911 написано:
що змінилось в релізі?

додано було 14 серію.

Anonymous 







2019-05-14 19:01  
+ 16 серія
фінал сезону та серіалу.

tgb 
Свій


З нами з: 31.08.12
Востаннє: 12.11.20
Повідомлень: 67

2020-08-31 16:40  
який це постапокаліпсис?((, 500 років минуло а в них вся техніка справна аж блищить, гоняють на байках хромованих, паливо в достатку), маєтки шикарні зовні і всередині, а їжа взагалі не проблема бо вирощують виключно мак.... але при цьому весь серіал бідненьки патякають про виживання людства... а бойові сцени без законів фізики... я зрозумів це комедія.,,
Ваш часовий пояс: GMT + 2 Години

Нова тема   Відповісти