У пустелі смерті (Сезон 3, Серії 1-8) / Into the Badlands (Season 3, Episodes 1-8) (2018) 720p Ukr/Eng

Нові коментарі

Нова тема   Відповісти
Автор Повідомлення
Anonymous 







2018-07-06 13:25  
У пустелі смерті (Сезон 3, Серії 1-8) / Into the Badlands (Season 3, Episodes 1-8) (2018) 720p Ukr/Eng




Жанр: екшн, пригодницький, драма
Країна: США



Кінокомпанія: AMC
Режисер: Девід Добкін
Актори: Деніел Ву, Орла Брейді, Сара Болгар, Араміс Найт, Емілі Бічем, Олівер Старк, Мадлен Манток, Елі Еонідес, Мартон Чокаш.

Сюжет:
Війни були так давно, що їх ніхто не пам'ятає. Темрява і страх панували тут, поки не з'явилися барони. Семеро чоловіків і жінок перетворили хаос на лад, люди стікалися до них у пошуках захисту, але захист обернувся рабством. Вони заборонили вогнепальну зброю і створили армії вбивць, яких назвали різниками. Цей світ заснований на крові, невинних тут немає. Ласкаво просимо в пустелю смерті.


Тривалість: 1 серія: 42хв (цілком серій: 8 з 16)
Перелік серій
Episode 1. Chapter XVII: Enter the Phoenix / Поява Фенікса
Episode 2. Chapter XVIII: Moon Rises, Raven Seeks / Місяць сходить, крук шукає
Episode 3. Chapter XIX: Leopard Snares Rabbit / Леопард ловить кролика
Episode 4. Chapter XX: Blind Cannibal Assassins / Сліпі канібали-вбивці
Episode 5. Chapter XXI: Carry Tiger to Mountain / Віднесіть тигра до гори
Episode 6. Chapter XXII: Black Wind Howls / Виє чорний вітер
Episode 7. Chapter XXIII: Dragonfly's Last Dance / Останній танець бабки
Якість: [AMZN]
Відео:
кодек:
розмір кадру: 1280 х 720
бітрейт: 3100 - 4500 кб/с

Аудіо # 1:
мова: українська
переклад: багатоголосий закадровий
кодек: 2.0
бітрейт: 192 кб/с

Аудіо # 2:
мова: англійська
переклад: оригінал
кодек: E- 5.1
бітрейт: 640 кб/с
Info
Complete name : H:\Serials\Into the Badlands S03 (2018) 720p\Into the Badlands S03E01 (2018) 720p.
Format :
Format version : Version 4 / Version 2
File size : 1.17 GiB
Duration : 42 min 34 s
Overall bit rate mode : Variable
Overall bit rate : 3 934 kb/s
Encoded date : UTC 2018-07-06 10:13:39
Writing application : v22.0.0 ('At The End Of The World') 64-bit
Writing library : libebml v1.3.5 + v1.4.8

Video
ID : 1
Format : AVC
Format/Info : Advanced Video Codec
Format profile : [email protected]
Format settings, CABAC : Yes
Format settings, RefFrames : 5 frames
Codec ID : V_MPEG4/ISO/AVC
Duration : 42 min 34 s
Bit rate mode : Variable
Bit rate : 3 100 kb/s
Maximum bit rate : 4 500 kb/s
Width : 1 280 pixels
Height : 720 pixels
Display aspect ratio : 16:9
Frame rate mode : Constant
Frame rate : 23.976 (24000/1001) FPS
Color space : YUV
Chroma subsampling : 4:2:0
Bit depth : 8 bits
Scan type : Progressive
Bits/(Pixel*Frame) : 0.140
Stream size : 944 MiB (79%)
Default : Yes
Forced : No
Color range : Limited
Color primaries : BT.709
Transfer characteristics : BT.709
Matrix coefficients : BT.709

Audio #1
ID : 2
Format : AC-3
Format/Info : Audio Coding 3
Format settings, Endianness : Big
Codec ID : A_AC3
Duration : 42 min 33 s
Bit rate mode : Constant
Bit rate : 192 kb/s
Channel(s) : 2 channels
Channel positions : Front: L R
Sampling rate : 48.0 kHz
Frame rate : 31.250 FPS (1536 SPF)
Bit depth : 16 bits
Compression mode : Lossy
Stream size : 58.5 MiB (5%)
Title : AMC
Language : Ukrainian
Service kind : Complete Main
Default : Yes
Forced : Yes

Audio #2
ID : 3
Format : E-AC-3
Format/Info : Enhanced Audio Coding 3
Format settings, Endianness : Big
Codec ID : A_EAC3
Duration : 42 min 33 s
Bit rate mode : Constant
Bit rate : 640 kb/s
Channel(s) : 6 channels
Channel positions : Front: L C R, Side: L R, LFE
Sampling rate : 48.0 kHz
Frame rate : 187.500 FPS (256 SPF)
Compression mode : Lossy
Stream size : 195 MiB (16%)
Language : English
Service kind : Complete Main
Default : No
Forced : No
Скріншоти






Подяка: пану з цієї роздачі за синхронізацію та доріжки. За постерт дякуємо mishka1998
Джерело:
Особиста оцінка: 8 - мені сподобалося

Оновлення: 18.08.18 - додано 8й епізод.


Rolleyes (4)


Бронзовий реліз (на рейтинг впливає 75% завантаженого)
 Трекер:    Зареєстрований   

Завантажити / скачати серіал українською



відео для новачків



 Зареєстрований:   2018-08-18 22:53
 Розмір:   9.78 GB 
 Оцінка серіалу:   8.9/10 (Голосів: 10)
   
Ваш часовий пояс: GMT + 2 Години

Нова тема   Відповісти