Кілер мимоволі (Odd Job) / Un petit boulot (2016) AVC Ukr/Fre | Sub Fre

Нові коментарі

Нова тема   Відповісти
Автор Повідомлення
staf777 
Попереджень: 1
Попереджень: 1 


З нами з: 16.11.16
Востаннє: 17.11.18
Повідомлень: 1753

2018-07-06 07:59  
Кілер мимоволі / Odd Job / Un petit boulot (2016) AVC Ukr/Fre | Sub Fre

Кілер мимоволі (Odd Job) / Un petit boulot (2016) AVC Ukr/Fre | Sub Fre
Оригінальна обкладинка



Жанр: комедія, кримінальний
Країна: Франція, Бельгія



Кінокомпанія: Canal+ [fr]
Режисер: Паскаль Шомель
Актори: Ромен Дюріс, Мішель Блан, Аліс Белаїді, Гюстав Керверн, Алекс Лутс, Шарлі Дюпон, Філіп Гран'Анрі, Томас Мастін, Кароль Трево

Сюжет:
Жак готовий на все, аби заробити гроші. Навіть на пропозицію місцевого авторитета вбити невірну дружину. Але є дві проблеми: Жак не володіє зброєю, а його нова дівчина працює у поліції, де розшукують невмілого кілера.


Тривалість: 01:39:53
Якість: AVC
Відео:
кодек:
розмір кадру: 1024x428
бітрейт: 2267 кб/с

Аудіо # 1:
мова: українська
переклад: багатоголосий закадровий
кодек: 2.0
бітрейт: 192 кб/с

Аудіо # 2:
мова: французька
переклад: оригінал
кодек: 5.1
бітрейт: 448 кб/с

Джерело озвучення:


Субтитри # 1-2:
мова: французька (форсовані, повні)
тип: програмні (м'які)
формат: *.srt
Info
General
Unique ID : 229513407662780680872144604874742080651 (0xACAAACA877AFADEE486CA033D16AA48B)
Complete name : H:\» Українське озвучення » Фільми\Комедія\Un petit boulot (2016) AVC [Ukr][Fre][Sub Fre][Hurtom].
Format :
Format version : Version 4 / Version 2
File size : 2.03 GiB
Duration : 1 h 39 min
Overall bit rate : 2 908 kb/s
Movie name : Un petit boulot (2016) AVC [Ukr][Fre][Sub Fre][Hurtom]
Encoded date : UTC 2018-07-06 06:37:14
Writing application : v24.0.0 ('Beyond The Pale') 64-bit
Writing library : libebml v1.3.6 + v1.4.9
Cover : Yes
Attachments : cover.jpg

Video
ID : 1
Format : AVC
Format/Info : Advanced Video Codec
Format profile : [email protected]
Format settings : CABAC / 13 Ref Frames
Format settings, CABAC : Yes
Format settings, ReFrames : 13 frames
Codec ID : V_MPEG4/ISO/AVC
Duration : 1 h 39 min
Bit rate : 2 267 kb/s
Width : 1 024 pixels
Height : 428 pixels
Display aspect ratio : 2.40:1
Frame rate mode : Constant
Frame rate : 24.000 FPS
Color space : YUV
Chroma subsampling : 4:2:0
Bit depth : 8 bits
Scan type : Progressive
Bits/(Pixel*Frame) : 0.216
Stream size : 1.58 GiB (78%)
Title : -Lexx-
Writing library : core 150 r2833kMod df79067
Encoding settings : cabac=1 / ref=13 / deblock=1:-3:-3 / analyse=0x3:0x113 / me=umh / subme=11 / psy=1 / fade_compensate=0.00 / psy_rd=1.00:0.15 / mixed_ref=1 / me_range=48 / chroma_me=1 / trellis=2 / 8x8dct=1 / cqm=0 / deadzone=21,11 / fast_pskip=0 / chroma_qp_offset=-3 / threads=12 / lookahead_threads=3 / sliced_threads=0 / nr=0 / decimate=0 / interlaced=0 / bluray_compat=0 / constrained_intra=0 / bframes=11 / b_pyramid=2 / b_adapt=2 / b_bias=0 / direct=3 / weightb=1 / open_gop=0 / weightp=2 / keyint=240 / keyint_min=24 / scenecut=40 / intra_refresh=0 / rc_lookahead=40 / rc=2pass / mbtree=0 / bitrate=2267 / ratetol=1.0 / qcomp=0.60 / qpmin=0 / qpmax=69 / qpstep=4 / cplxblur=20.0 / qblur=0.5 / vbv_maxrate=50000 / vbv_bufsize=62500 / nal_hrd=none / filler=0 / ip_ratio=1.40 / pb_ratio=1.30 / aq=1:1.00
Language : English
Default : Yes
Forced : No

Audio #1
ID : 2
Format : AC-3
Format/Info : Audio Coding 3
Codec ID : A_AC3
Duration : 1 h 39 min
Bit rate mode : Constant
Bit rate : 192 kb/s
Channel(s) : 2 channels
Channel positions : Front: L R
Sampling rate : 48.0 kHz
Frame rate : 31.250 FPS (1536 SPF)
Bit depth : 16 bits
Compression mode : Lossy
Stream size : 137 MiB (7%)
Title : [UA-MVO]
Language : Ukrainian
Service kind : Complete Main
Default : Yes
Forced : Yes

Audio #2
ID : 3
Format : AC-3
Format/Info : Audio Coding 3
Codec ID : A_AC3
Duration : 1 h 39 min
Bit rate mode : Constant
Bit rate : 448 kb/s
Channel(s) : 6 channels
Channel positions : Front: L C R, Side: L R, LFE
Sampling rate : 48.0 kHz
Frame rate : 31.250 FPS (1536 SPF)
Bit depth : 16 bits
Compression mode : Lossy
Stream size : 320 MiB (15%)
Language : French
Service kind : Complete Main
Default : No
Forced : No

Text #1
ID : 4
Format : UTF-8
Codec ID : S_TEXT/UTF8
Codec ID/Info : UTF-8 Plain Text
Duration : 4 min 34 s
Bit rate : 12 b/s
Count of elements : 19
Stream size : 422 Bytes (0%)
Title : Forced
Language : French
Default : No
Forced : No

Text #2
ID : 5
Format : UTF-8
Codec ID : S_TEXT/UTF8
Codec ID/Info : UTF-8 Plain Text
Duration : 1 h 39 min
Bit rate : 62 b/s
Count of elements : 1396
Stream size : 45.9 KiB (0%)
Title : Full
Language : French
Default : No
Forced : No

Menu
00:00:00.000 : en:Chapter 1
00:07:54.791 : en:Chapter 2
00:15:05.583 : en:Chapter 3
00:23:20.625 : en:Chapter 4
00:33:32.041 : en:Chapter 5
00:47:30.000 : en:Chapter 6
01:00:06.000 : en:Chapter 7
01:09:46.041 : en:Chapter 8
01:14:57.375 : en:Chapter 9
01:20:41.000 : en:Chapter 10
01:29:50.375 : en:Chapter 11
01:36:25.958 : en:Chapter 12
Скріншоти




Джерело: &
Особиста оцінка: 0 - не дивився
Подяка Bohdan237 та drop_plz за українську доріжку


 Трекер:    Зареєстрований   

Завантажити / скачати фільм українською



відео для новачків



 Зареєстрований:   2018-07-06 08:46
 Розмір:   2.03 GB 
 Оцінка фільму:   7.3/10 (Голосів: 16)
   
Custo 12 
Свій


З нами з: 08.11.16
Востаннє: 17.11.18
Повідомлень: 72

2018-07-07 18:01  
Жанр близько не валявся біля комедії, депресивна фігня ні про що.
merime 
Новенький


З нами з: 14.02.12
Востаннє: 16.11.18
Повідомлень: 11

2018-07-08 09:46  
Дайте я вгадаю, чому Un petit boulot переклали англійською, як Odd Job, а українською Кілер мимоволі. Патамушто росіянською: Кіллєр панєволє.
def-17.2 
Новенький


З нами з: 20.02.15
Востаннє: 17.11.18
Повідомлень: 17

2018-07-15 20:21  
Все що напино вище є фігнею. А кінострічку знято в найкращих традицях французької комедії.
Ваш часовий пояс: GMT + 2 Години

Нова тема   Відповісти