За межею / Beyond Borders (2003) 1080p Ukr/Eng | Sub Eng

Нові коментарі

Нова тема   Відповісти
Останній раз роздавалося drop_plz (2020-09-24)
Автор Повідомлення
Anonymous 







2018-07-06 05:30  
За межею / Beyond Borders (2003) 1080p Ukr/Eng | Sub Eng

За межею / Beyond Borders (2003) 1080p Ukr/Eng | Sub Eng


Жанр: драма, мелодрама, пригодницький, військовий
Країна: США



Кінокомпанія: Mandalay Pictures
Режисер: Мартін Кемпбелл /Martin Campbell
Актори: Анджеліна Джолі /Angelina Jolie/, Клайв Овен /Clive Owen/, Лайнас Роуч /Linus Roache/, Тері Поло /Teri Polo/, Ноа Еммеріх /Noah Emmerich/, Тімоті Вест /Timothy West

Сюжет:
Молода заміжня американка Сара Джордан, що живе в Англії, опиняється на добродійному вечорі і там чує палку промову, виголошену доктором Ніком Келлахеном. Його полум'яний заклик про допомогу дітям країн, залучених у військові конфлікти, перевернула життя Сари назавжди.

Зачарована Ніком і його благородними ідеями, вона розлучається зі спокійним життям і, жертвуючи своїм благополуччям, прямує назустріч ризику, небезпеці і... своєму коханню. Протягом десяти років доля буде зводити Сару і Ніка в різних "гарячих точках" нашої планети - в Камбоджі, Ефіопії та Чечні, приготувавши закоханим страшні випробування.


Тривалість: 02:06:28
Якість:
Відео:
кодек:
розмір кадру: 1920х816
бітрейт: 8353 кб/с

Аудіо # 1:
мова: українська
переклад: багатоголосий закадровий |
кодек: 5.1
бітрейт: 384 кб/с

Аудіо # 2:
мова: англійська
переклад: оригінал
кодек: 5.1
бітрейт: 640 кб/с

Субтитри:
мова: англійська
тип: програмні (м'які)
формат: *.srt
Info
General
Unique ID : 171984234153430243016977499620451880575 (0x8162F56A3551C57D849FA6902B3D0E7F)
Format :
Format version : Version 4 / Version 2
File size : 8.28 GiB
Duration : 2 h 6 min
Overall bit rate : 9 378 kb/s
Encoded date : UTC 2018-07-06 02:21:04
Writing application : v6.1.0 ('Old Devil') built on Mar 4 2013 09:10:42
Writing library : libebml v1.3.0 + v1.4.0

Video
ID : 1
Format : AVC
Format/Info : Advanced Video Codec
Format profile : [email protected]
Format settings, CABAC : Yes
Format settings, ReFrames : 5 frames
Codec ID : V_MPEG4/ISO/AVC
Duration : 2 h 6 min
Bit rate : 8 353 kb/s
Width : 1 920 pixels
Height : 816 pixels
Display aspect ratio : 2.35:1
Frame rate mode : Constant
Frame rate : 23.976 FPS
Color space : YUV
Chroma subsampling : 4:2:0
Bit depth : 8 bits
Scan type : Progressive
Bits/(Pixel*Frame) : 0.222
Stream size : 7.22 GiB (87%)
Writing library : core 65 r1016M dbc5ef0
Encoding settings : cabac=1 / ref=5 / deblock=1:0:0 / analyse=0x3:0x113 / me=umh / subme=8 / psy_rd=1.0:0.0 / mixed_ref=1 / me_range=16 / chroma_me=1 / trellis=1 / 8x8dct=1 / cqm=0 / deadzone=21,11 / chroma_qp_offset=-2 / threads=6 / nr=0 / decimate=1 / mbaff=0 / bframes=3 / b_pyramid=1 / b_adapt=1 / b_bias=0 / direct=3 / wpredb=1 / keyint=250 / keyint_min=25 / scenecut=40(pre) / rc=2pass / bitrate=8353 / ratetol=1.0 / qcomp=0.60 / qpmin=10 / qpmax=51 / qpstep=4 / cplxblur=20.0 / qblur=0.5 / ip_ratio=1.40 / pb_ratio=1.30 / aq=1:1.00
Language : English
Default : Yes
Forced : No

Audio #1
ID : 2
Format : AC-3
Format/Info : Audio Coding 3
Format settings, Endianness : Big
Codec ID : A_AC3
Duration : 2 h 6 min
Bit rate mode : Constant
Bit rate : 384 kb/s
Channel(s) : 6 channels
Channel positions : Front: L C R, Side: L R, LFE
Sampling rate : 48.0 kHz
Frame rate : 31.250 FPS (1536 spf)
Bit depth : 16 bits
Compression mode : Lossy
Stream size : 347 MiB (4%)
Title : UKR (Inter)
Language : Ukrainian
Service kind : Complete Main
Default : Yes
Forced : Yes

Audio #2
ID : 3
Format : AC-3
Format/Info : Audio Coding 3
Format settings, Endianness : Big
Codec ID : A_AC3
Duration : 2 h 6 min
Bit rate mode : Constant
Bit rate : 640 kb/s
Channel(s) : 6 channels
Channel positions : Front: L C R, Side: L R, LFE
Sampling rate : 48.0 kHz
Frame rate : 31.250 FPS (1536 spf)
Bit depth : 16 bits
Compression mode : Lossy
Stream size : 579 MiB (7%)
Language : English
Service kind : Complete Main
Default : No
Forced : No

Text
ID : 4
Format : UTF-8
Codec ID : S_TEXT/UTF8
Codec ID/Info : UTF-8 Plain Text
Title : ENG
Language : English
Default : Yes
Forced : No
Скріншоти





Подяка п. Romario_O за звукозапис з ТБ, та Thefir за українізований постер.
Подяка п. _oles за синхронізовану укр. доріжку
Особиста подяка пану denixx за надану матеріальну допомогу на підтримку цього і майбутніх релізів.
Джерело:


Срібний реліз (на рейтинг впливає 50% завантаженого)
 Трекер:    Зареєстрований   

Завантажити / скачати фільм українською



відео для новачків



 Зареєстрований:   2018-07-06 05:30
 Розмір:   8.28 GB 
 Оцінка фільму:   10/10 (Голосів: 2)
   
Інші релізи
   За межею / Beyond Borders (2003) Remux 1080p Ukr/Eng | Sub Eng Devil_my_cry  0 / 1   17.89 GB   2018-03-04 00:01 
   За межею / Beyond Borders (2003) AVC Ukr/Eng Arsenfpu  3 / 0   2.14 GB   2017-10-29 18:40 
   За межею / Beyond Borders (2003) 720p Ukr/Eng Devil_my_cry  2 / 0   4.94 GB   2011-08-18 19:54 
   За межею / Beyond Borders (2003) Ukr/Eng / Sub Eng _oles  2 / 0   2.18 GB   2011-08-16 15:10 
igor911 
Модератор відео


З нами з: 18.01.08
Востаннє: 25.09.20
Повідомлень: 15006

2018-07-06 09:18  
Info написано:
Writing library : core 65
Encoding settings : subme=8 / me_range=16 / bframes=3 / bitrate=8353

замість цього старезного сцен-ріпу бажано було б обрати кращий, вони ж є в мережі у вільному доступі

Додано через 4 хвилини 58 секунд:

+ бажано було б додати укр.доріжку з свіжішого запису https://toloka.to/t84913

Siegfried 
VIP


З нами з: 01.11.11
Востаннє: 20.09.20
Повідомлень: 325

2018-07-06 10:53  
На плакаті, таке враження, що показано ногом'ячиста Андрія Шевченка...

Додано через 3 хвилини 4 секунди:

igor911 написано:
на добродійному вечорі


Хм...
Це малося на увазі доброчинний чи благодійний ?

Ваш часовий пояс: GMT + 2 Години

Нова тема   Відповісти