Статус: Update / Status Update (2018) AVC Ukr/Eng | Sub Eng

Нові коментарі

Нова тема   Відповісти
Автор Повідомлення
11FrYkT 
Модератор відео


З нами з: 20.02.11
Востаннє: 21.02.19
Повідомлень: 5598

2018-07-05 21:29  
Статус: Update / Status Update (2018) AVC Ukr/Eng | Sub Eng

Статус: Update / Status Update (2018) AVC Ukr/Eng | Sub Eng


Жанр: комедія, фентезі
Країна: США, Канада, Китай



Кінокомпанія: Offspring Entertainment, Brightlight Pictures, DNA Pictures, Heyi Capital
Режисер: Скотт Спір
Актори: Росс Лінч, Олівія Голт, Кортні Ітон, Маркіян Тарасюк, Ґреґґ Салкін, Харві Гільєн, Ніколас Лі, Фамке Янссен, Джон Майкл Хіггінс, Венді МакЛендон-Кові та інщі

Сюжет:
Старшокласник Кайл щойно перевівся до нової школи. Лише місцевий невдаха прийняв його з розкритими обіймами. Більш успішні хлопці при першій же зустрічі розбили його телефон. Дивакуватий незнайомець із телефонного сервісу встановив на новий гаджет Кайла якийсь додаток. Тепер будь-яке вигадане повідомлення, опубліковане Кайлом, одразу стає реальністю.


Тривалість: 01:46:49
Якість: AVC

Відео:
кодек:
розмір кадру: 1024 x 428
бітрейт: 1819 кб/с

Аудіо # 1:
мова: українська
переклад: професійний дубльований | студія AAA-Sound
кодек: 2.0 (стерео)
бітрейт: 192 кб/с

Аудіо # 2:
мова: англійська
переклад: оригінал
кодек: 5.1
бітрейт: 448 кб/с

Субтитри:
мова: англійська
тип: програмні (м'які)
формат: *.srt
Info
Код:
General
Unique ID : 251542433889808057327615834018679896091 (0xBD3D4F8198D2E5929C8B30E86660381B)
Complete name : D:\Відео\Кіно\Status Update (2018) AVC [UKR_ENG] [Hurtom] (1).
Format :
Format version : Version 2
File size : 1.84 GiB
Duration : 1 h 46 min
Overall bit rate : 2 459 kb/s
Movie name : Статус Update / Status Update (2018)
Encoded date : UTC 2018-11-23 15:50:47
Writing application : v4.9.1 ('Ich will') зібрано Jul 11 2011 23:53:15
Writing library : libebml v1.2.1 + v1.1.1
Attachments : posterab9bff1e0dc7d0f8.jpg

Video
ID : 1
Format : AVC
Format/Info : Advanced Video Codec
Format profile : [email protected]
Format settings : CABAC / 10 Ref Frames
Format settings, CABAC : Yes
Format settings, ReFrames : 10 frames
Codec ID : V_MPEG4/ISO/AVC
Duration : 1 h 46 min
Bit rate : 1 819 kb/s
Width : 1 024 pixels
Height : 428 pixels
Display aspect ratio : 2.40:1
Frame rate mode : Constant
Frame rate : 23.976 (24000/1001) FPS
Color space : YUV
Chroma subsampling : 4:2:0
Bit depth : 8 bits
Scan type : Progressive
Bits/(Pixel*Frame) : 0.173
Stream size : 1.32 GiB (72%)
Writing library : core 146 r2538 121396c
Encoding settings : cabac=1 / ref=10 / deblock=1:-3:-3 / analyse=0x3:0x113 / me=umh / subme=11 / psy=1 / psy_rd=0.97:0.05 / mixed_ref=1 / me_range=48 / chroma_me=1 / trellis=2 / 8x8dct=1 / cqm=0 / deadzone=21,11 / fast_pskip=1 / chroma_qp_offset=-3 / threads=6 / lookahead_threads=1 / sliced_threads=0 / nr=0 / decimate=1 / interlaced=0 / bluray_compat=0 / constrained_intra=0 / bframes=11 / b_pyramid=2 / b_adapt=2 / b_bias=0 / direct=3 / weightb=1 / open_gop=0 / weightp=2 / keyint=240 / keyint_min=23 / scenecut=40 / intra_refresh=0 / rc_lookahead=40 / rc=2pass / mbtree=0 / bitrate=1819 / ratetol=1.0 / qcomp=0.60 / qpmin=0 / qpmax=69 / qpstep=4 / cplxblur=20.0 / qblur=0.5 / vbv_maxrate=50000 / vbv_bufsize=62500 / nal_hrd=none / filler=0 / ip_ratio=1.40 / pb_ratio=1.30 / aq=1:1.00
Language : English
Default : Yes
Forced : No

Audio #1
ID : 2
Format : AC-3
Format/Info : Audio Coding 3
Commercial name : Dolby Digital
Codec ID : A_AC3
Duration : 1 h 46 min
Bit rate mode : Constant
Bit rate : 192 kb/s
Channel(s) : 2 channels
Channel layout : L R
Sampling rate : 48.0 kHz
Frame rate : 31.250 FPS (1536 SPF)
Bit depth : 16 bits
Compression mode : Lossy
Stream size : 147 MiB (8%)
Title : Dub [AAASound], 2.0 [stereo] 192 Kbps
Language : Ukrainian
Service kind : Complete Main
Default : Yes
Forced : No

Audio #2
ID : 3
Format : AC-3
Format/Info : Audio Coding 3
Commercial name : Dolby Digital
Codec ID : A_AC3
Duration : 1 h 46 min
Bit rate mode : Constant
Bit rate : 448 kb/s
Channel(s) : 6 channels
Channel layout : L R C LFE Ls Rs
Sampling rate : 48.0 kHz
Frame rate : 31.250 FPS (1536 SPF)
Bit depth : 16 bits
Compression mode : Lossy
Stream size : 342 MiB (18%)
Title : [Original]
Language : English
Service kind : Complete Main
Default : No
Forced : No

Text #1
ID : 4
Format : UTF-8
Codec ID : S_TEXT/UTF8
Codec ID/Info : UTF-8 Plain Text
Title : Full
Language : English
Default : No
Forced : No

Text #2
ID : 5
Format : UTF-8
Codec ID : S_TEXT/UTF8
Codec ID/Info : UTF-8 Plain Text
Title : SDH
Language : English
Default : No
Forced : No

Menu
00:00:00.000 : en:00:00:00.000
00:10:24.541 : en:00:10:24.541
00:15:51.784 : en:00:15:51.784
00:25:04.211 : en:00:25:04.211
00:31:46.947 : en:00:31:46.947
00:41:15.431 : en:00:41:15.431
00:51:18.450 : en:00:51:18.450
01:00:46.101 : en:01:00:46.101
01:07:21.037 : en:01:07:21.037
01:16:25.206 : en:01:16:25.206
01:24:47.416 : en:01:24:47.416
01:32:11.943 : en:01:32:11.943


Джерело: &
Особиста оцінка: 0 - не дивився


 Трекер:    Зареєстрований   

Завантажити / скачати фільм українською



відео для новачків



 Зареєстрований:   2018-11-23 18:22
 Розмір:   1.84 GB 
 Оцінка фільму:   7.3/10 (Голосів: 32)
   
Інші релізи
   Статус: Update / Status Update (2018) Remux 1080p Ukr/Eng | Sub Eng staf777  2 / 0   15.67 GB   2018-11-24 00:28 
   Статус: Update / Status Update (2018) 1080p Ukr/Eng | Sub Eng staf777  6 / 0   7.61 GB   2018-11-23 22:51 
   Статус: Update / Status Update (2018) 720р Ukr/Eng | Sub Eng 11FrYkT  9 / 0   3.72 GB   2018-11-23 22:33 
   Статус: Update / Status Update (2018) Ukr/Eng uafilm.tv  10 / 0   1.37 GB   2018-07-04 21:52 
Arcon Sarkel 
Попереджень: 2
Попереджень: 2 


З нами з: 04.03.16
Востаннє: 21.02.19
Повідомлень: 216

2018-07-28 17:50  
Кумедненько. Благозичу творцям.
Katrynka 
Свій


З нами з: 23.11.09
Востаннє: 18.02.19
Повідомлень: 52

2018-11-04 14:20  
Якби Росса Шора Лінча пов'язували під час зйомок особисті відносини з Олівією Хастингс Холт (так звучать повні імена провідних виконавців), вони б, ймовірно, більш переконливо зобразили взаємні почуття, все-таки виникли, незважаючи на супутні непорозуміння, у Кайла і Дені.
Однак, за інформацією, що просочилася в пресу, молодий, але вже досить відомий актор тоді зустрічався з Кортні Ітон, що постала в образі Шарлотти. Вона-то щиро намагається показати найпопулярнішу дівчину Хеденськой середньої школи, куди прибувшому з Каліфорнії хлопцеві на перших порах виявляється важкувато адаптуватися, цинічною, геть позбавленою ілюзій, яка напролом йде до обраної мети, але ...
Але в їх швидкий - неминуче швидкий - розрив з Муром чомусь віриться не надто. Втім, вирішальним для авторів обставиною стало все ж інше. Скотт Спір, прекрасно освоївся на ниві створення фільмів для тінейджерів і про них же, свідомо постарався витягти максимум з іміджу Лінча і Холт, за якими, як і раніше тягнеться шлейф ранніх ролей - ролей, зіграних в різних проектах телекомпанії Disney Channel, що спеціалізується на випуску продукції для дітей, навіть не для підлітків. До того ж, багато в США знають, що і Росс, і Олівія встигли вдало спробувати сили (перший - у складі поп-рок-групи R5, остання - соло) на музичному терені ..

Дефіцит жартів «нижче пояса» кидається в очі, та й двозначні ситуації, зав'язані на прагнення старшокласників самоствердитися за рахунок слабаків і невдах, зайнявши в школі домінуюче становище, не здаються вульгарними. Ніяких сексуальних пригод любителів «американських пирогів», ніяких оскаженілих вечірок, що завершуються, коли батьківський будинок спалений дотла, - все мирно і виразно віддає сентиментальністю.

11FrYkT 
Модератор відео


З нами з: 20.02.11
Востаннє: 21.02.19
Повідомлень: 5598

2018-11-23 18:23  
23.11.2018 Роздачу оновлено


Замінив на


скріни потім

hetzendorf 
Відео Гуртом - підтримка та поширення
Відео Гуртом - підтримка та поширення


З нами з: 23.07.15
Востаннє: 21.02.19
Повідомлень: 1848

2018-11-23 22:05  
Що, знову в холівудських нездар кокс закінчився, тож вони, як завжди, не спромоглися нічого вигадати, окрім як скомуніздити сюжета й ідеї з європейського кінематографу?
11FrYkT 
Модератор відео


З нами з: 20.02.11
Востаннє: 21.02.19
Повідомлень: 5598

2018-11-23 22:24  
720
роман xa 
Поважний учасник


З нами з: 03.03.13
Востаннє: 21.02.19
Повідомлень: 216

2018-11-24 09:52  
Лайно!
Ваш часовий пояс: GMT + 2 Години

Нова тема   Відповісти